  0
SECTION
  2
HEADER
  9
$ACADVER
  1
AC1015
  9
$ACADMAINTVER
 70
     6
  9
$DWGCODEPAGE
  3
ANSI_1252
  9
$INSBASE
 10
0.0
 20
0.0
 30
0.0
  9
$EXTMIN
 10
340.5512598949246
 20
3.27081898810808
 30
0.0
  9
$EXTMAX
 10
637.5512598949247
 20
213.2708189881082
 30
0.0
  9
$LIMMIN
 10
0.0
 20
0.0
  9
$LIMMAX
 10
12.0
 20
9.0
  9
$ORTHOMODE
 70
     0
  9
$REGENMODE
 70
     1
  9
$FILLMODE
 70
     1
  9
$QTEXTMODE
 70
     0
  9
$MIRRTEXT
 70
     1
  9
$LTSCALE
 40
1.0
  9
$ATTMODE
 70
     1
  9
$TEXTSIZE
 40
0.2
  9
$TRACEWID
 40
0.05
  9
$TEXTSTYLE
  7
Standard
  9
$CLAYER
  8
0
  9
$CELTYPE
  6
ByLayer
  9
$CECOLOR
 62
   256
  9
$CELTSCALE
 40
1.0
  9
$DISPSILH
 70
     0
  9
$DIMSCALE
 40
1.0
  9
$DIMASZ
 40
0.18
  9
$DIMEXO
 40
0.0625
  9
$DIMDLI
 40
0.38
  9
$DIMRND
 40
0.0
  9
$DIMDLE
 40
0.0
  9
$DIMEXE
 40
0.18
  9
$DIMTP
 40
0.0
  9
$DIMTM
 40
0.0
  9
$DIMTXT
 40
0.18
  9
$DIMCEN
 40
0.09
  9
$DIMTSZ
 40
0.0
  9
$DIMTOL
 70
     0
  9
$DIMLIM
 70
     0
  9
$DIMTIH
 70
     1
  9
$DIMTOH
 70
     1
  9
$DIMSE1
 70
     0
  9
$DIMSE2
 70
     0
  9
$DIMTAD
 70
     0
  9
$DIMZIN
 70
     0
  9
$DIMBLK
  1

  9
$DIMASO
 70
     1
  9
$DIMSHO
 70
     1
  9
$DIMPOST
  1

  9
$DIMAPOST
  1

  9
$DIMALT
 70
     0
  9
$DIMALTD
 70
     2
  9
$DIMALTF
 40
25.4
  9
$DIMLFAC
 40
1.0
  9
$DIMTOFL
 70
     0
  9
$DIMTVP
 40
0.0
  9
$DIMTIX
 70
     0
  9
$DIMSOXD
 70
     0
  9
$DIMSAH
 70
     0
  9
$DIMBLK1
  1

  9
$DIMBLK2
  1

  9
$DIMSTYLE
  2
Standard
  9
$DIMCLRD
 70
     0
  9
$DIMCLRE
 70
     0
  9
$DIMCLRT
 70
     0
  9
$DIMTFAC
 40
1.0
  9
$DIMGAP
 40
0.09
  9
$DIMJUST
 70
     0
  9
$DIMSD1
 70
     0
  9
$DIMSD2
 70
     0
  9
$DIMTOLJ
 70
     1
  9
$DIMTZIN
 70
     0
  9
$DIMALTZ
 70
     0
  9
$DIMALTTZ
 70
     0
  9
$DIMUPT
 70
     0
  9
$DIMDEC
 70
     4
  9
$DIMTDEC
 70
     4
  9
$DIMALTU
 70
     2
  9
$DIMALTTD
 70
     2
  9
$DIMTXSTY
  7
Standard
  9
$DIMAUNIT
 70
     0
  9
$DIMADEC
 70
     0
  9
$DIMALTRND
 40
0.0
  9
$DIMAZIN
 70
     0
  9
$DIMDSEP
 70
    46
  9
$DIMATFIT
 70
     3
  9
$DIMFRAC
 70
     0
  9
$DIMLDRBLK
  1

  9
$DIMLUNIT
 70
     2
  9
$DIMLWD
 70
    -2
  9
$DIMLWE
 70
    -2
  9
$DIMTMOVE
 70
     0
  9
$LUNITS
 70
     2
  9
$LUPREC
 70
     4
  9
$SKETCHINC
 40
0.1
  9
$FILLETRAD
 40
0.5
  9
$AUNITS
 70
     0
  9
$AUPREC
 70
     0
  9
$MENU
  1
.
  9
$ELEVATION
 40
0.0
  9
$PELEVATION
 40
0.0
  9
$THICKNESS
 40
0.0
  9
$LIMCHECK
 70
     0
  9
$CHAMFERA
 40
0.5
  9
$CHAMFERB
 40
0.5
  9
$CHAMFERC
 40
1.0
  9
$CHAMFERD
 40
0.0
  9
$SKPOLY
 70
     0
  9
$TDCREATE
 40
2456997.611447153
  9
$TDUCREATE
 40
2456997.569780486
  9
$TDUPDATE
 40
2456997.611447523
  9
$TDUUPDATE
 40
2456997.569780856
  9
$TDINDWG
 40
0.0000000116
  9
$TDUSRTIMER
 40
0.0000000116
  9
$USRTIMER
 70
     1
  9
$ANGBASE
 50
0.0
  9
$ANGDIR
 70
     0
  9
$PDMODE
 70
     0
  9
$PDSIZE
 40
0.0
  9
$PLINEWID
 40
0.0
  9
$SPLFRAME
 70
     0
  9
$SPLINETYPE
 70
     6
  9
$SPLINESEGS
 70
     8
  9
$HANDSEED
  5
7BA
  9
$SURFTAB1
 70
     6
  9
$SURFTAB2
 70
     6
  9
$SURFTYPE
 70
     6
  9
$SURFU
 70
     6
  9
$SURFV
 70
     6
  9
$UCSBASE
  2

  9
$UCSNAME
  2

  9
$UCSORG
 10
0.0
 20
0.0
 30
0.0
  9
$UCSXDIR
 10
1.0
 20
0.0
 30
0.0
  9
$UCSYDIR
 10
0.0
 20
1.0
 30
0.0
  9
$UCSORTHOREF
  2

  9
$UCSORTHOVIEW
 70
     0
  9
$UCSORGTOP
 10
0.0
 20
0.0
 30
0.0
  9
$UCSORGBOTTOM
 10
0.0
 20
0.0
 30
0.0
  9
$UCSORGLEFT
 10
0.0
 20
0.0
 30
0.0
  9
$UCSORGRIGHT
 10
0.0
 20
0.0
 30
0.0
  9
$UCSORGFRONT
 10
0.0
 20
0.0
 30
0.0
  9
$UCSORGBACK
 10
0.0
 20
0.0
 30
0.0
  9
$PUCSBASE
  2

  9
$PUCSNAME
  2

  9
$PUCSORG
 10
0.0
 20
0.0
 30
0.0
  9
$PUCSXDIR
 10
1.0
 20
0.0
 30
0.0
  9
$PUCSYDIR
 10
0.0
 20
1.0
 30
0.0
  9
$PUCSORTHOREF
  2

  9
$PUCSORTHOVIEW
 70
     0
  9
$PUCSORGTOP
 10
0.0
 20
0.0
 30
0.0
  9
$PUCSORGBOTTOM
 10
0.0
 20
0.0
 30
0.0
  9
$PUCSORGLEFT
 10
0.0
 20
0.0
 30
0.0
  9
$PUCSORGRIGHT
 10
0.0
 20
0.0
 30
0.0
  9
$PUCSORGFRONT
 10
0.0
 20
0.0
 30
0.0
  9
$PUCSORGBACK
 10
0.0
 20
0.0
 30
0.0
  9
$USERI1
 70
     0
  9
$USERI2
 70
     0
  9
$USERI3
 70
     0
  9
$USERI4
 70
     0
  9
$USERI5
 70
     0
  9
$USERR1
 40
18.1
  9
$USERR2
 40
0.0
  9
$USERR3
 40
0.0
  9
$USERR4
 40
0.0
  9
$USERR5
 40
0.0
  9
$WORLDVIEW
 70
     1
  9
$SHADEDGE
 70
     3
  9
$SHADEDIF
 70
    70
  9
$TILEMODE
 70
     1
  9
$MAXACTVP
 70
    64
  9
$PINSBASE
 10
0.0
 20
0.0
 30
0.0
  9
$PLIMCHECK
 70
     0
  9
$PEXTMIN
 10
1.00000000000000E+20
 20
1.00000000000000E+20
 30
1.00000000000000E+20
  9
$PEXTMAX
 10
-1.00000000000000E+20
 20
-1.00000000000000E+20
 30
-1.00000000000000E+20
  9
$PLIMMIN
 10
0.0
 20
0.0
  9
$PLIMMAX
 10
12.0
 20
9.0
  9
$UNITMODE
 70
     0
  9
$VISRETAIN
 70
     1
  9
$PLINEGEN
 70
     0
  9
$PSLTSCALE
 70
     1
  9
$TREEDEPTH
 70
  3020
  9
$CMLSTYLE
  2
Standard
  9
$CMLJUST
 70
     0
  9
$CMLSCALE
 40
1.0
  9
$PROXYGRAPHICS
 70
     1
  9
$MEASUREMENT
 70
     1
  9
$CELWEIGHT
370
    -1
  9
$ENDCAPS
280
     0
  9
$JOINSTYLE
280
     0
  9
$LWDISPLAY
290
     0
  9
$INSUNITS
 70
     4
  9
$HYPERLINKBASE
  1

  9
$STYLESHEET
  1

  9
$XEDIT
290
     1
  9
$CEPSNTYPE
380
     0
  9
$PSTYLEMODE
290
     1
  9
$FINGERPRINTGUID
  2
{ED8F45EE-B579-4653-833A-F866BA112276}
  9
$VERSIONGUID
  2
{FAEB1C32-E019-11D5-929B-00C0DF256EC4}
  9
$EXTNAMES
290
     1
  9
$PSVPSCALE
 40
0.0
  9
$OLESTARTUP
290
     0
  0
ENDSEC
  0
SECTION
  2
CLASSES
  0
CLASS
  1
ACDBDICTIONARYWDFLT
  2
AcDbDictionaryWithDefault
  3
ObjectDBX Classes
 90
        0
280
     0
281
     0
  0
CLASS
  1
VISUALSTYLE
  2
AcDbVisualStyle
  3
ObjectDBX Classes
 90
     4095
280
     0
281
     0
  0
CLASS
  1
MATERIAL
  2
AcDbMaterial
  3
ObjectDBX Classes
 90
     1153
280
     0
281
     0
  0
CLASS
  1
DICTIONARYVAR
  2
AcDbDictionaryVar
  3
ObjectDBX Classes
 90
        0
280
     0
281
     0
  0
CLASS
  1
ACDBPLACEHOLDER
  2
AcDbPlaceHolder
  3
ObjectDBX Classes
 90
        0
280
     0
281
     0
  0
CLASS
  1
LAYOUT
  2
AcDbLayout
  3
ObjectDBX Classes
 90
        0
280
     0
281
     0
  0
ENDSEC
  0
SECTION
  2
TABLES
  0
TABLE
  2
VPORT
  5
8
330
0
100
AcDbSymbolTable
 70
     1
  0
VPORT
  5
29
330
8
100
AcDbSymbolTableRecord
100
AcDbViewportTableRecord
  2
*Active
 70
     0
 10
0.0
 20
0.0
 11
1.0
 21
1.0
 12
489.0512598949247
 22
108.2708189881081
 13
0.0
 23
0.0
 14
0.5
 24
0.5
 15
0.5
 25
0.5
 16
0.0
 26
0.0
 36
1.0
 17
0.0
 27
0.0
 37
0.0
 40
231.0000000000001
 41
1.60267857142857
 42
50.0
 43
0.0
 44
0.0
 50
0.0
 51
0.0
 71
     0
 72
   100
 73
     1
 74
     3
 75
     0
 76
     0
 77
     0
 78
     0
281
     0
 65
     1
110
0.0
120
0.0
130
0.0
111
1.0
121
0.0
131
0.0
112
0.0
122
1.0
132
0.0
 79
     0
146
0.0
  0
ENDTAB
  0
TABLE
  2
LTYPE
  5
5
330
0
100
AcDbSymbolTable
 70
    10
  0
LTYPE
  5
14
330
5
100
AcDbSymbolTableRecord
100
AcDbLinetypeTableRecord
  2
ByBlock
 70
     0
  3

 72
    65
 73
     0
 40
0.0
  0
LTYPE
  5
15
330
5
100
AcDbSymbolTableRecord
100
AcDbLinetypeTableRecord
  2
ByLayer
 70
     0
  3

 72
    65
 73
     0
 40
0.0
  0
LTYPE
  5
16
330
5
100
AcDbSymbolTableRecord
100
AcDbLinetypeTableRecord
  2
Continuous
 70
     0
  3
Solid line
 72
    65
 73
     0
 40
0.0
  0
LTYPE
  5
3F
330
5
100
AcDbSymbolTableRecord
100
AcDbLinetypeTableRecord
  2
DASHED
 70
     0
  3
Dashed
 72
    65
 73
     2
 40
15.0
 49
7.0
 74
     0
 49
-8.0
 74
     0
  0
LTYPE
  5
40
330
5
100
AcDbSymbolTableRecord
100
AcDbLinetypeTableRecord
  2
DOTTED
 70
     0
  3
Dotted
 72
    65
 73
     2
 40
1.0
 49
0.0
 74
     0
 49
-1.0
 74
     0
  0
LTYPE
  5
41
330
5
100
AcDbSymbolTableRecord
100
AcDbLinetypeTableRecord
  2
DOT_CENTER
 70
     0
  3
Dot_Center
 72
    65
 73
     4
 40
14.0
 49
12.0
 74
     0
 49
-1.0
 74
     0
 49
0.0
 74
     0
 49
-1.0
 74
     0
  0
LTYPE
  5
42
330
5
100
AcDbSymbolTableRecord
100
AcDbLinetypeTableRecord
  2
LONG_DASHED
 70
     0
  3
Long_Dashed
 72
    65
 73
     2
 40
15.0
 49
10.0
 74
     0
 49
-5.0
 74
     0
  0
LTYPE
  5
43
330
5
100
AcDbSymbolTableRecord
100
AcDbLinetypeTableRecord
  2
DASH_CENTER
 70
     0
  3
Dash_Center
 72
    65
 73
     4
 40
14.0
 49
11.0
 74
     0
 49
-1.0
 74
     0
 49
1.0
 74
     0
 49
-1.0
 74
     0
  0
LTYPE
  5
44
330
5
100
AcDbSymbolTableRecord
100
AcDbLinetypeTableRecord
  2
PHANTOM
 70
     0
  3
Phantom
 72
    65
 73
     6
 40
13.0
 49
10.0
 74
     0
 49
-1.0
 74
     0
 49
0.0
 74
     0
 49
-1.0
 74
     0
 49
0.0
 74
     0
 49
-1.0
 74
     0
  0
LTYPE
  5
45
330
5
100
AcDbSymbolTableRecord
100
AcDbLinetypeTableRecord
  2
CENTER_DASH_DASH
 70
     0
  3
Center_Dash_Dash
 72
    65
 73
     6
 40
14.0
 49
9.0
 74
     0
 49
-1.0
 74
     0
 49
1.0
 74
     0
 49
-1.0
 74
     0
 49
1.0
 74
     0
 49
-1.0
 74
     0
  0
LTYPE
  5
46
330
5
100
AcDbSymbolTableRecord
100
AcDbLinetypeTableRecord
  2
CHAIN
 70
     0
  3
CHAIN
 72
    65
 73
     4
 40
4.0
 49
1.0
 74
     0
 49
-1.0
 74
     0
 49
1.0
 74
     0
 49
-1.0
 74
     0
  0
LTYPE
  5
47
330
5
100
AcDbSymbolTableRecord
100
AcDbLinetypeTableRecord
  2
DASHED_SPACE
 70
     0
  3
DASHED_SPACE
 72
    65
 73
     2
 40
2.0
 49
1.0
 74
     0
 49
-1.0
 74
     0
  0
ENDTAB
  0
TABLE
  2
LAYER
  5
2
330
0
100
AcDbSymbolTable
 70
     7
  0
LAYER
  5
10
330
2
100
AcDbSymbolTableRecord
100
AcDbLayerTableRecord
  2
0
 70
     0
 62
     7
  6
Continuous
370
    -3
390
F
  0
LAYER
  5
48
330
2
100
AcDbSymbolTableRecord
100
AcDbLayerTableRecord
  2
1
 70
     0
 62
     7
  6
Continuous
370
    -3
390
F
  0
LAYER
  5
49
330
2
100
AcDbSymbolTableRecord
100
AcDbLayerTableRecord
  2
Bemaßungen_TC_020513_DIN_
 70
     0
 62
     7
  6
Continuous
370
    -3
390
F
  0
LAYER
  5
4A
330
2
100
AcDbSymbolTableRecord
100
AcDbLayerTableRecord
  2
Mittellinie_TC_020513_DIN_
 70
     0
 62
     7
  6
Continuous
370
    -3
390
F
  0
LAYER
  5
4B
330
2
100
AcDbSymbolTableRecord
100
AcDbLayerTableRecord
  2
Mittelpunktmarkierung_TC_020513_DIN_
 70
     0
 62
     7
  6
Continuous
370
    -3
390
F
  0
LAYER
  5
4C
330
2
100
AcDbSymbolTableRecord
100
AcDbLayerTableRecord
  2
Sichtbare_Kanten_TC_020513_DIN_
 70
     0
 62
     7
  6
Continuous
370
    -3
390
F
  0
LAYER
  5
4D
330
2
100
AcDbSymbolTableRecord
100
AcDbLayerTableRecord
  2
Stich_1-Linien_TC_020513_DIN_
 70
     0
 62
     7
  6
Continuous
370
    -3
390
F
  0
ENDTAB
  0
TABLE
  2
STYLE
  5
3
330
0
100
AcDbSymbolTable
 70
     4
  0
STYLE
  5
11
330
3
100
AcDbSymbolTableRecord
100
AcDbTextStyleTableRecord
  2
Standard
 70
     0
 40
0.0
 41
1.0
 50
0.0
 71
     0
 42
0.2
  3
txt
  4

  0
STYLE
  5
A2
330
3
100
AcDbSymbolTableRecord
100
AcDbTextStyleTableRecord
  2
CONVERTER_11
 70
     0
 40
0.0
 41
1.2
 50
0.0
 71
     0
 42
0.2
  3
ARIAL.TTF
  4

  0
STYLE
  5
A7
330
3
100
AcDbSymbolTableRecord
100
AcDbTextStyleTableRecord
  2
CONVERTER_12
 70
     0
 40
0.0
 41
1.38
 50
0.0
 71
     0
 42
0.2
  3
ARIAL.TTF
  4

  0
STYLE
  5
726
330
3
100
AcDbSymbolTableRecord
100
AcDbTextStyleTableRecord
  2
CONVERTER_13
 70
     0
 40
0.0
 41
0.75
 50
0.0
 71
     0
 42
0.2
  3
txt.shx
  4

  0
ENDTAB
  0
TABLE
  2
VIEW
  5
6
330
0
100
AcDbSymbolTable
 70
     0
  0
ENDTAB
  0
TABLE
  2
UCS
  5
7
330
0
100
AcDbSymbolTable
 70
     0
  0
ENDTAB
  0
TABLE
  2
APPID
  5
9
330
0
100
AcDbSymbolTable
 70
     1
  0
APPID
  5
12
330
9
100
AcDbSymbolTableRecord
100
AcDbRegAppTableRecord
  2
ACAD
 70
     0
  0
ENDTAB
  0
TABLE
  2
DIMSTYLE
  5
A
330
0
100
AcDbSymbolTable
 70
    11
100
AcDbDimStyleTable
  0
DIMSTYLE
105
27
330
A
100
AcDbSymbolTableRecord
100
AcDbDimStyleTableRecord
  2
Standard
 70
     0
178
     0
340
11
  0
DIMSTYLE
105
72A
102
{ACAD_REACTORS
330
72B
102
}
330
A
100
AcDbSymbolTableRecord
100
AcDbDimStyleTableRecord
  2
ME10_DIM_10
 70
     0
 41
2.5
 42
1.0
 44
2.0
 73
     0
 74
     0
 77
     1
 78
    12
140
3.5
147
0.8
172
     1
173
     1
174
     1
175
     1
176
     7
177
     7
271
     2
178
     7
271
     2
340
726
  0
DIMSTYLE
105
735
102
{ACAD_REACTORS
330
736
102
}
330
A
100
AcDbSymbolTableRecord
100
AcDbDimStyleTableRecord
  2
ME10_DIM_11
 70
     0
 41
2.5
 42
1.0
 44
2.0
 73
     0
 74
     0
 77
     1
 78
    12
140
3.5
147
0.8
172
     1
173
     1
174
     1
175
     1
176
     7
177
     7
271
     0
178
     7
271
     0
340
726
  0
DIMSTYLE
105
740
102
{ACAD_REACTORS
330
741
102
}
330
A
100
AcDbSymbolTableRecord
100
AcDbDimStyleTableRecord
  2
ME10_DIM_12
 70
     0
 41
2.5
 42
1.0
 44
2.0
 73
     0
 74
     0
 77
     1
 78
    12
140
3.5
147
0.8
172
     1
173
     1
174
     1
175
     1
176
     7
177
     7
271
     2
178
     7
271
     2
340
726
  0
DIMSTYLE
105
74B
102
{ACAD_REACTORS
330
74C
102
}
330
A
100
AcDbSymbolTableRecord
100
AcDbDimStyleTableRecord
  2
ME10_DIM_13
 70
     0
 41
2.5
 42
1.0
 44
2.0
 73
     0
 74
     0
 77
     1
 78
    12
140
3.5
147
0.8
172
     1
173
     1
174
     1
175
     1
176
     7
177
     7
271
     2
178
     7
271
     2
340
726
  0
DIMSTYLE
105
756
102
{ACAD_REACTORS
330
757
102
}
330
A
100
AcDbSymbolTableRecord
100
AcDbDimStyleTableRecord
  2
ME10_DIM_14
 70
     0
 41
2.5
 42
1.0
 44
2.0
 73
     0
 74
     0
 77
     1
 78
    12
140
3.5
147
0.8
172
     1
173
     1
174
     1
175
     1
176
     7
177
     7
271
     2
178
     7
271
     2
340
726
  0
DIMSTYLE
105
761
102
{ACAD_REACTORS
330
762
102
}
330
A
100
AcDbSymbolTableRecord
100
AcDbDimStyleTableRecord
  2
ME10_DIM_15
 70
     0
 41
2.5
 42
1.0
 44
2.0
 73
     0
 74
     0
 77
     1
 78
    12
140
3.5
147
0.8
172
     1
173
     1
174
     1
175
     1
176
     7
177
     7
271
     2
178
     7
271
     2
340
726
  0
DIMSTYLE
105
76C
102
{ACAD_REACTORS
330
76D
102
}
330
A
100
AcDbSymbolTableRecord
100
AcDbDimStyleTableRecord
  2
ME10_DIM_16
 70
     0
 41
2.5
 42
1.0
 44
2.0
 73
     0
 74
     0
 77
     1
 78
    12
140
3.5
147
0.8
172
     1
173
     1
174
     1
175
     1
176
     7
177
     7
271
     2
178
     7
271
     2
340
726
  0
DIMSTYLE
105
777
102
{ACAD_REACTORS
330
778
102
}
330
A
100
AcDbSymbolTableRecord
100
AcDbDimStyleTableRecord
  2
ME10_DIM_17
 70
     0
 41
2.5
 42
1.0
 44
2.0
 73
     0
 74
     0
 77
     1
 78
    12
140
3.5
147
0.8
172
     1
173
     1
174
     1
175
     1
176
     7
177
     7
271
     2
178
     7
271
     2
340
726
  0
DIMSTYLE
105
782
102
{ACAD_REACTORS
330
783
102
}
330
A
100
AcDbSymbolTableRecord
100
AcDbDimStyleTableRecord
  2
ME10_DIM_18
 70
     0
 41
2.5
 42
1.0
 44
2.0
 73
     0
 74
     0
 77
     1
 78
    12
140
3.5
147
0.8
172
     1
173
     1
174
     1
175
     1
176
     7
177
     7
271
     2
178
     7
271
     2
340
726
  0
DIMSTYLE
105
78D
102
{ACAD_REACTORS
330
78E
102
}
330
A
100
AcDbSymbolTableRecord
100
AcDbDimStyleTableRecord
  2
ME10_DIM_19
 70
     0
 41
2.5
 42
1.0
 44
2.0
 73
     0
 74
     0
 77
     1
 78
    12
140
3.5
147
0.8
172
     1
173
     1
174
     1
175
     1
176
     7
177
     7
271
     2
178
     7
271
     2
340
726
  0
ENDTAB
  0
TABLE
  2
BLOCK_RECORD
  5
1
330
0
100
AcDbSymbolTable
 70
    13
  0
BLOCK_RECORD
  5
1F
330
1
100
AcDbSymbolTableRecord
100
AcDbBlockTableRecord
  2
*Model_Space
340
22
  0
BLOCK_RECORD
  5
1B
330
1
100
AcDbSymbolTableRecord
100
AcDbBlockTableRecord
  2
*Paper_Space
340
1E
  0
BLOCK_RECORD
  5
23
330
1
100
AcDbSymbolTableRecord
100
AcDbBlockTableRecord
  2
*Paper_Space0
340
26
  0
BLOCK_RECORD
  5
4E
330
1
100
AcDbSymbolTableRecord
100
AcDbBlockTableRecord
  2
_formato_A4
340
0
102
{BLKREFS
331
52
102
}
  0
BLOCK_RECORD
  5
51
330
1
100
AcDbSymbolTableRecord
100
AcDbBlockTableRecord
  2
A4_oriz
340
0
102
{BLKREFS
331
55
102
}
  0
BLOCK_RECORD
  5
720
330
1
100
AcDbSymbolTableRecord
100
AcDbBlockTableRecord
  2
*D3
340
0
  0
BLOCK_RECORD
  5
72C
330
1
100
AcDbSymbolTableRecord
100
AcDbBlockTableRecord
  2
*D4
340
0
  0
BLOCK_RECORD
  5
737
330
1
100
AcDbSymbolTableRecord
100
AcDbBlockTableRecord
  2
*D5
340
0
  0
BLOCK_RECORD
  5
742
330
1
100
AcDbSymbolTableRecord
100
AcDbBlockTableRecord
  2
*D6
340
0
  0
BLOCK_RECORD
  5
74D
330
1
100
AcDbSymbolTableRecord
100
AcDbBlockTableRecord
  2
*D7
340
0
  0
BLOCK_RECORD
  5
758
330
1
100
AcDbSymbolTableRecord
100
AcDbBlockTableRecord
  2
*D8
340
0
  0
BLOCK_RECORD
  5
763
330
1
100
AcDbSymbolTableRecord
100
AcDbBlockTableRecord
  2
*D9
340
0
  0
BLOCK_RECORD
  5
76E
330
1
100
AcDbSymbolTableRecord
100
AcDbBlockTableRecord
  2
*D10
340
0
  0
BLOCK_RECORD
  5
779
330
1
100
AcDbSymbolTableRecord
100
AcDbBlockTableRecord
  2
*D11
340
0
  0
BLOCK_RECORD
  5
784
330
1
100
AcDbSymbolTableRecord
100
AcDbBlockTableRecord
  2
*D12
340
0
  0
ENDTAB
  0
ENDSEC
  0
SECTION
  2
BLOCKS
  0
BLOCK
  5
20
330
1F
100
AcDbEntity
  8
0
100
AcDbBlockBegin
  2
*Model_Space
 70
     0
 10
0.0
 20
0.0
 30
0.0
  3
*Model_Space
  1

  0
ENDBLK
  5
21
330
1F
100
AcDbEntity
  8
0
100
AcDbBlockEnd
  0
BLOCK
  5
1C
330
1B
100
AcDbEntity
 67
     1
  8
0
100
AcDbBlockBegin
  2
*Paper_Space
 70
     0
 10
0.0
 20
0.0
 30
0.0
  3
*Paper_Space
  1

  0
ENDBLK
  5
1D
330
1B
100
AcDbEntity
 67
     1
  8
0
100
AcDbBlockEnd
  0
BLOCK
  5
24
330
23
100
AcDbEntity
  8
0
100
AcDbBlockBegin
  2
*Paper_Space0
 70
     0
 10
0.0
 20
0.0
 30
0.0
  3
*Paper_Space0
  1

  0
ENDBLK
  5
25
330
23
100
AcDbEntity
  8
0
100
AcDbBlockEnd
  0
BLOCK
  5
4F
330
4E
100
AcDbEntity
  8
0
100
AcDbBlockBegin
  2
_formato_A4
 70
     0
 10
637.5512598949247
 20
3.27081898810808
 30
0.0
  3
_formato_A4
  1

  0
LINE
  5
56
330
4E
100
AcDbEntity
  8
1
  6
Continuous
 62
     7
100
AcDbLine
 10
448.5512598949246
 20
8.27081898810796
 30
0.0
 11
448.5512598949246
 21
43.27081898810807
 31
0.0
  0
LINE
  5
57
330
4E
100
AcDbEntity
  8
1
  6
Continuous
 62
     7
100
AcDbLine
 10
448.5512598949246
 20
23.27081898810808
 30
0.0
 11
632.5512598949247
 21
23.27081898810808
 31
0.0
  0
LINE
  5
58
330
4E
100
AcDbEntity
  8
1
  6
Continuous
 62
     7
100
AcDbLine
 10
345.5512598949244
 20
192.270818988108
 30
0.0
 11
345.5512598949244
 21
8.27081898810808
 31
0.0
  0
LINE
  5
59
330
4E
100
AcDbEntity
  8
1
  6
Continuous
 62
     7
100
AcDbLine
 10
473.5512598949247
 20
38.27081898810807
 30
0.0
 11
473.5512598949247
 21
43.27081898810807
 31
0.0
  0
LINE
  5
5A
330
4E
100
AcDbEntity
  8
1
  6
Continuous
 62
     7
100
AcDbLine
 10
455.5512598949246
 20
38.27081898810807
 30
0.0
 11
455.5512598949246
 21
43.27081898810807
 31
0.0
  0
LINE
  5
5B
330
4E
100
AcDbEntity
  8
1
  6
Continuous
 62
     7
100
AcDbLine
 10
448.5512598949246
 20
43.27081898810807
 30
0.0
 11
632.5512598949247
 21
43.27081898810807
 31
0.0
  0
LINE
  5
5C
330
4E
100
AcDbEntity
  8
1
  6
Continuous
 62
     7
100
AcDbLine
 10
473.5512598949247
 20
33.27081898810807
 30
0.0
 11
473.5512598949247
 21
38.27081898810807
 31
0.0
  0
LINE
  5
5D
330
4E
100
AcDbEntity
  8
1
  6
Continuous
 62
     7
100
AcDbLine
 10
455.5512598949246
 20
33.27081898810807
 30
0.0
 11
455.5512598949246
 21
38.27081898810807
 31
0.0
  0
LINE
  5
5E
330
4E
100
AcDbEntity
  8
1
  6
Continuous
 62
     7
100
AcDbLine
 10
448.5512598949246
 20
38.27081898810807
 30
0.0
 11
632.5512598949247
 21
38.27081898810807
 31
0.0
  0
LINE
  5
5F
330
4E
100
AcDbEntity
  8
1
  6
Continuous
 62
     7
100
AcDbLine
 10
473.5512598949247
 20
28.27081898810807
 30
0.0
 11
473.5512598949247
 21
33.27081898810807
 31
0.0
  0
LINE
  5
60
330
4E
100
AcDbEntity
  8
1
  6
Continuous
 62
     7
100
AcDbLine
 10
455.5512598949246
 20
28.27081898810807
 30
0.0
 11
455.5512598949246
 21
33.27081898810807
 31
0.0
  0
LINE
  5
61
330
4E
100
AcDbEntity
  8
1
  6
Continuous
 62
     7
100
AcDbLine
 10
448.5512598949246
 20
33.27081898810807
 30
0.0
 11
632.5512598949247
 21
33.27081898810807
 31
0.0
  0
LINE
  5
62
330
4E
100
AcDbEntity
  8
1
  6
Continuous
 62
     7
100
AcDbLine
 10
473.5512598949247
 20
23.27081898810808
 30
0.0
 11
473.5512598949247
 21
28.27081898810807
 31
0.0
  0
LINE
  5
63
330
4E
100
AcDbEntity
  8
1
  6
Continuous
 62
     7
100
AcDbLine
 10
455.5512598949246
 20
23.27081898810808
 30
0.0
 11
455.5512598949246
 21
28.27081898810807
 31
0.0
  0
LINE
  5
64
330
4E
100
AcDbEntity
  8
1
  6
Continuous
 62
     7
100
AcDbLine
 10
448.5512598949246
 20
28.27081898810807
 30
0.0
 11
632.5512598949247
 21
28.27081898810807
 31
0.0
  0
LINE
  5
65
102
{ACAD_REACTORS
330
AD
102
}
330
4E
100
AcDbEntity
  8
1
  6
Continuous
 62
     7
100
AcDbLine
 10
623.3941347348305
 20
13.82882106848841
 30
0.0
 11
622.0608014014972
 21
13.05959029925781
 31
0.0
  0
LINE
  5
66
102
{ACAD_REACTORS
330
AD
102
}
330
4E
100
AcDbEntity
  8
1
  6
Continuous
 62
     7
100
AcDbLine
 10
622.2275605836674
 20
13.92545552075602
 30
0.0
 11
623.0609864325041
 21
14.40627812585432
 31
0.0
  0
LINE
  5
67
102
{ACAD_REACTORS
330
AD
102
}
330
4E
100
AcDbEntity
  8
1
  6
Continuous
 62
     7
100
AcDbLine
 10
622.2275605836674
 20
15.43748565477471
 30
0.0
 11
622.2275605836674
 21
13.92545552075602
 31
0.0
  0
LINE
  5
68
102
{ACAD_REACTORS
330
AD
102
}
330
4E
100
AcDbEntity
  8
1
  6
Continuous
 62
     7
100
AcDbLine
 10
623.2275605836674
 20
15.43748565477471
 30
0.0
 11
622.2275605836674
 21
15.43748565477471
 31
0.0
  0
LINE
  5
69
102
{ACAD_REACTORS
330
AD
102
}
330
4E
100
AcDbEntity
  8
1
  6
Continuous
 62
     7
100
AcDbLine
 10
622.2275605836674
 20
16.10415232144134
 30
0.0
 11
623.2275605836674
 21
16.10415232144134
 31
0.0
  0
LINE
  5
6A
102
{ACAD_REACTORS
330
AD
102
}
330
4E
100
AcDbEntity
  8
1
  6
Continuous
 62
     7
100
AcDbLine
 10
622.2275605836674
 20
17.61618245546003
 30
0.0
 11
622.2275605836674
 21
16.10415232144134
 31
0.0
  0
LINE
  5
6B
102
{ACAD_REACTORS
330
AD
102
}
330
4E
100
AcDbEntity
  8
1
  6
Continuous
 62
     7
100
AcDbLine
 10
623.0609864325041
 20
17.13535985036184
 30
0.0
 11
622.2275605836674
 21
17.61618245546003
 31
0.0
  0
LINE
  5
6C
102
{ACAD_REACTORS
330
AD
102
}
330
4E
100
AcDbEntity
  8
1
  6
Continuous
 62
     7
100
AcDbLine
 10
622.0608014014972
 20
18.48204767695835
 30
0.0
 11
623.3941347348305
 21
17.71281690772752
 31
0.0
  0
LINE
  5
6D
102
{ACAD_REACTORS
330
AE
102
}
330
4E
100
AcDbEntity
  8
1
  6
Continuous
 62
     7
100
AcDbLine
 10
614.894227250334
 20
14.11754959717131
 30
0.0
 11
614.894227250334
 21
17.42408837904474
 31
0.0
  0
LINE
  5
6E
102
{ACAD_REACTORS
330
AE
102
}
330
4E
100
AcDbEntity
  8
1
  6
Continuous
 62
     7
100
AcDbLine
 10
615.5608939170006
 20
14.31007090537138
 30
0.0
 11
615.5608939170006
 21
14.11754959717131
 31
0.0
  0
LINE
  5
6F
102
{ACAD_REACTORS
330
AE
102
}
330
4E
100
AcDbEntity
  8
1
  6
Continuous
 62
     7
100
AcDbLine
 10
615.5608939170006
 20
17.42408837904474
 30
0.0
 11
615.5608939170006
 21
14.31007090537138
 31
0.0
  0
LINE
  5
70
102
{ACAD_REACTORS
330
AF
102
}
330
4E
100
AcDbEntity
  8
1
  6
Continuous
 62
     7
100
AcDbLine
 10
618.7276530991708
 20
11.71343645310388
 30
0.0
 11
616.5610789480077
 21
12.96338307877498
 31
0.0
  0
LINE
  5
71
102
{ACAD_REACTORS
330
AF
102
}
330
4E
100
AcDbEntity
  8
1
  6
Continuous
 62
     7
100
AcDbLine
 10
616.894227250334
 20
13.54084013614078
 30
0.0
 11
619.0608014014972
 21
12.29089351046968
 31
0.0
  0
LINE
  5
72
102
{ACAD_REACTORS
330
AF
102
}
330
4E
100
AcDbEntity
  8
1
  6
Continuous
 62
     7
100
AcDbLine
 10
616.894227250334
 20
18.19331914827545
 30
0.0
 11
616.894227250334
 21
13.54084013614078
 31
0.0
  0
LINE
  5
73
102
{ACAD_REACTORS
330
AF
102
}
330
4E
100
AcDbEntity
  8
1
  6
Continuous
 62
     7
100
AcDbLine
 10
616.2275605836674
 20
13.54084013614066
 30
0.0
 11
616.2275605836674
 21
18.19331914827545
 31
0.0
  0
LINE
  5
74
102
{ACAD_REACTORS
330
B0
102
}
330
4E
100
AcDbEntity
  8
1
  6
Continuous
 62
     7
100
AcDbLine
 10
620.3997935667106
 20
19.13451940638037
 30
0.0
 11
619.2275605836674
 21
17.10415232144134
 31
0.0
  0
LINE
  5
75
102
{ACAD_REACTORS
330
B0
102
}
330
4E
100
AcDbEntity
  8
1
  6
Continuous
 62
     7
100
AcDbLine
 10
620.894227250334
 20
12.57908805870987
 30
0.0
 11
620.894227250334
 21
19.00203630014266
 31
0.0
  0
LINE
  5
76
102
{ACAD_REACTORS
330
B0
102
}
330
4E
100
AcDbEntity
  8
1
  6
Continuous
 62
     7
100
AcDbLine
 10
620.2275605836674
 20
15.77081898810808
 30
0.0
 11
620.2275605836674
 21
12.57908805870987
 31
0.0
  0
LINE
  5
77
102
{ACAD_REACTORS
330
B0
102
}
330
4E
100
AcDbEntity
  8
1
  6
Continuous
 62
     7
100
AcDbLine
 10
618.2275605836674
 20
14.11840406074099
 30
0.0
 11
618.2275605836674
 21
15.77081898810808
 31
0.0
  0
LINE
  5
78
102
{ACAD_REACTORS
330
B0
102
}
330
4E
100
AcDbEntity
  8
1
  6
Continuous
 62
     7
100
AcDbLine
 10
617.5608939170006
 20
15.77081898810808
 30
0.0
 11
617.5608939170006
 21
14.11840406074099
 31
0.0
  0
LINE
  5
79
102
{ACAD_REACTORS
330
B0
102
}
330
4E
100
AcDbEntity
  8
1
  6
Continuous
 62
     7
100
AcDbLine
 10
618.0553276006241
 20
19.13451940638037
 30
0.0
 11
619.2275605836674
 21
17.10415232144134
 31
0.0
  0
LINE
  5
7A
102
{ACAD_REACTORS
330
B0
102
}
330
4E
100
AcDbEntity
  8
1
  6
Continuous
 62
     7
100
AcDbLine
 10
617.5608939170006
 20
15.77081898810808
 30
0.0
 11
617.5608939170006
 21
19.00203630014266
 31
0.0
  0
LINE
  5
7B
330
4E
100
AcDbEntity
  8
1
  6
Continuous
 62
     7
100
AcDbLine
 10
619.2275605836674
 20
10.77081898810808
 30
0.0
 11
610.8111253085258
 21
15.62645472376664
 31
0.0
  0
LINE
  5
7C
330
4E
100
AcDbEntity
  8
1
  6
Continuous
 62
     7
100
AcDbLine
 10
627.6439958588088
 20
15.62645472376664
 30
0.0
 11
619.2275605836674
 21
10.77081898810808
 31
0.0
  0
LINE
  5
7D
330
4E
100
AcDbEntity
  8
1
  6
Continuous
 62
     7
100
AcDbLine
 10
619.2275605836674
 20
20.77081898810808
 30
0.0
 11
627.6439958588088
 21
15.91518325244941
 31
0.0
  0
LINE
  5
7E
330
4E
100
AcDbEntity
  8
1
  6
Continuous
 62
     7
100
AcDbLine
 10
610.8111253085258
 20
15.91518325244941
 30
0.0
 11
619.2275605836674
 21
20.77081898810808
 31
0.0
  0
LINE
  5
7F
102
{ACAD_REACTORS
330
B0
102
}
330
4E
100
AcDbEntity
  8
1
  6
Continuous
 62
     7
100
AcDbLine
 10
618.2275605836674
 20
17.50286979567692
 30
0.0
 11
618.2275605836674
 21
15.77081898810808
 31
0.0
  0
LINE
  5
80
102
{ACAD_REACTORS
330
B0
102
}
330
4E
100
AcDbEntity
  8
1
  6
Continuous
 62
     7
100
AcDbLine
 10
619.0832230163699
 20
16.02081898810808
 30
0.0
 11
618.2275605836674
 21
17.50286979567692
 31
0.0
  0
LINE
  5
81
102
{ACAD_REACTORS
330
B0
102
}
330
4E
100
AcDbEntity
  8
1
  6
Continuous
 62
     7
100
AcDbLine
 10
620.2275605836674
 20
17.50286979567692
 30
0.0
 11
619.3718981509647
 21
16.02081898810808
 31
0.0
  0
LINE
  5
82
102
{ACAD_REACTORS
330
B0
102
}
330
4E
100
AcDbEntity
  8
1
  6
Continuous
 62
     7
100
AcDbLine
 10
620.2275605836674
 20
15.77081898810808
 30
0.0
 11
620.2275605836674
 21
17.50286979567692
 31
0.0
  0
LINE
  5
83
102
{ACAD_REACTORS
330
AD
102
}
330
4E
100
AcDbEntity
  8
1
  6
Continuous
 62
     7
100
AcDbLine
 10
621.5608939170007
 20
13.34831882794071
 30
0.0
 11
621.5608939170007
 21
18.19331914827545
 31
0.0
  0
LINE
  5
84
330
4E
100
AcDbEntity
  8
1
  6
Continuous
 62
     7
100
AcDbLine
 10
632.5512598949247
 20
192.270818988108
 30
0.0
 11
345.5512598949244
 21
192.270818988108
 31
0.0
  0
LINE
  5
85
330
4E
100
AcDbEntity
  8
1
  6
Continuous
 62
     7
100
AcDbLine
 10
632.5512598949247
 20
8.27081898810808
 30
0.0
 11
632.5512598949247
 21
192.270818988108
 31
0.0
  0
LINE
  5
86
330
4E
100
AcDbEntity
  8
1
  6
Continuous
 62
     7
100
AcDbLine
 10
345.5512598949244
 20
8.27081898810808
 30
0.0
 11
632.5512598949247
 21
8.27081898810808
 31
0.0
  0
LINE
  5
87
330
4E
100
AcDbEntity
  8
1
  6
Continuous
 62
     7
100
AcDbLine
 10
637.5512598949247
 20
3.27081898810808
 30
0.0
 11
637.5512598949247
 21
213.2708189881082
 31
0.0
  0
LINE
  5
88
330
4E
100
AcDbEntity
  8
1
  6
Continuous
 62
     7
100
AcDbLine
 10
637.5512598949247
 20
213.2708189881082
 30
0.0
 11
340.5512598949246
 21
213.2708189881082
 31
0.0
  0
LINE
  5
89
330
4E
100
AcDbEntity
  8
1
  6
Continuous
 62
     7
100
AcDbLine
 10
340.5512598949246
 20
213.2708189881082
 30
0.0
 11
340.5512598949246
 21
3.27081898810808
 31
0.0
  0
LINE
  5
8A
330
4E
100
AcDbEntity
  8
1
  6
Continuous
 62
     7
100
AcDbLine
 10
340.5512598949246
 20
3.27081898810808
 30
0.0
 11
637.5512598949247
 21
3.27081898810808
 31
0.0
  0
LINE
  5
8B
330
4E
100
AcDbEntity
  8
1
  6
Continuous
 62
     7
100
AcDbLine
 10
489.0512598949242
 20
213.2708189881082
 30
0.0
 11
489.0512598949242
 21
198.2708189881082
 31
0.0
  0
LINE
  5
8C
330
4E
100
AcDbEntity
  8
1
  6
Continuous
 62
     7
100
AcDbLine
 10
478.5512598949246
 20
23.27081898810808
 30
0.0
 11
478.5512598949246
 21
8.27081898810808
 31
0.0
  0
LINE
  5
8D
330
4E
100
AcDbEntity
  8
1
  6
Continuous
 62
     7
100
AcDbLine
 10
605.90386127241
 20
23.27081898810808
 30
0.0
 11
605.90386127241
 21
8.27081898810808
 31
0.0
  0
LINE
  5
8E
330
4E
100
AcDbEntity
  8
1
  6
Continuous
 62
     7
100
AcDbLine
 10
588.5512598949247
 20
23.27081898810808
 30
0.0
 11
588.5512598949247
 21
8.27081898810808
 31
0.0
  0
LINE
  5
8F
330
4E
100
AcDbEntity
  8
1
  6
Continuous
 62
     7
100
AcDbLine
 10
448.5512598949246
 20
18.27081898810797
 30
0.0
 11
478.5512598949246
 21
18.27081898810797
 31
0.0
  0
LINE
  5
90
330
4E
100
AcDbEntity
  8
1
  6
Continuous
 62
     7
100
AcDbLine
 10
448.5512598949246
 20
13.27081898810794
 30
0.0
 11
478.5512598949246
 21
13.27081898810794
 31
0.0
  0
ARC
  5
91
102
{ACAD_REACTORS
330
AD
102
}
330
4E
100
AcDbEntity
  8
1
  6
Continuous
 62
     7
100
AcDbCircle
 10
623.2275605836674
 20
14.11754959717131
 30
0.0
 40
0.3333333333333187
100
AcDbArc
 50
299.9816393688333
 51
119.9816393688409
  0
ARC
  5
92
102
{ACAD_REACTORS
330
AD
102
}
330
4E
100
AcDbEntity
  8
1
  6
Continuous
 62
     7
100
AcDbCircle
 10
623.2275605836674
 20
15.77081898810808
 30
0.0
 40
0.3333333333333695
100
AcDbArc
 50
270.0
 51
90.0
  0
ARC
  5
93
102
{ACAD_REACTORS
330
AD
102
}
330
4E
100
AcDbEntity
  8
1
  6
Continuous
 62
     7
100
AcDbCircle
 10
623.2275605836674
 20
17.42408837904474
 30
0.0
 40
0.333333333333374
100
AcDbArc
 50
240.0183606311496
 51
60.01836063115653
  0
ARC
  5
94
102
{ACAD_REACTORS
330
AE
102
}
330
4E
100
AcDbEntity
  8
1
  6
Continuous
 62
     7
100
AcDbCircle
 10
615.2275605836674
 20
14.11754959717131
 30
0.0
 40
0.3333333333333712
100
AcDbArc
 50
180.0
 51
0.0
  0
ARC
  5
95
102
{ACAD_REACTORS
330
AE
102
}
330
4E
100
AcDbEntity
  8
1
  6
Continuous
 62
     7
100
AcDbCircle
 10
615.2275605836674
 20
17.42408837904474
 30
0.0
 40
0.3333333333332575
100
AcDbArc
 50
0.0
 51
180.0
  0
ARC
  5
96
102
{ACAD_REACTORS
330
AF
102
}
330
4E
100
AcDbEntity
  8
1
  6
Continuous
 62
     7
100
AcDbCircle
 10
618.894227250334
 20
12.00216498178678
 30
0.0
 40
0.3333333333333755
100
AcDbArc
 50
240.0183606311498
 51
60.01836063114968
  0
ARC
  5
97
102
{ACAD_REACTORS
330
AF
102
}
330
4E
100
AcDbEntity
  8
1
  6
Continuous
 62
     7
100
AcDbCircle
 10
616.5608939170006
 20
18.19331914827545
 30
0.0
 40
0.3333333333333712
100
AcDbArc
 50
0.0
 51
180.0
  0
ARC
  5
98
102
{ACAD_REACTORS
330
B0
102
}
330
4E
100
AcDbEntity
  8
1
  6
Continuous
 62
     7
100
AcDbCircle
 10
620.6292610378587
 20
19.00203630014266
 30
0.0
 40
0.2649662124753149
100
AcDbArc
 50
0.0
 51
149.9999999999763
  0
ARC
  5
99
102
{ACAD_REACTORS
330
B0
102
}
330
4E
100
AcDbEntity
  8
1
  6
Continuous
 62
     7
100
AcDbCircle
 10
620.5608939170007
 20
12.57908805870987
 30
0.0
 40
0.3333333333333712
100
AcDbArc
 50
180.0
 51
0.0
  0
ARC
  5
9A
102
{ACAD_REACTORS
330
B0
102
}
330
4E
100
AcDbEntity
  8
1
  6
Continuous
 62
     7
100
AcDbCircle
 10
617.894227250334
 20
14.11840406074099
 30
0.0
 40
0.3333333333333712
100
AcDbArc
 50
180.0
 51
0.0
  0
ARC
  5
9B
102
{ACAD_REACTORS
330
B0
102
}
330
4E
100
AcDbEntity
  8
1
  6
Continuous
 62
     7
100
AcDbCircle
 10
617.8258601294759
 20
19.00203630014266
 30
0.0
 40
0.2649662124753301
100
AcDbArc
 50
30.0000000000114
 51
180.0
  0
ARC
  5
9C
102
{ACAD_REACTORS
330
AD
102
}
330
4E
100
AcDbEntity
  8
1
  6
Continuous
 62
     7
100
AcDbCircle
 10
621.894227250334
 20
13.34831882794071
 30
0.0
 40
0.3333333333332575
100
AcDbArc
 50
180.0
 51
299.9816393688502
  0
ARC
  5
9D
102
{ACAD_REACTORS
330
AD
102
}
330
4E
100
AcDbEntity
  8
1
  6
Continuous
 62
     7
100
AcDbCircle
 10
621.894227250334
 20
18.19331914827545
 30
0.0
 40
0.333333333333374
100
AcDbArc
 50
60.01836063114968
 51
180.0
  0
ARC
  5
9E
330
4E
100
AcDbEntity
  8
1
  6
Continuous
 62
     7
100
AcDbCircle
 10
627.5607087832273
 20
15.77081898810808
 30
0.0
 40
0.1666666666666494
100
AcDbArc
 50
299.9816393688353
 51
60.01836063114615
  0
ARC
  5
9F
330
4E
100
AcDbEntity
  8
1
  6
Continuous
 62
     7
100
AcDbCircle
 10
610.8944123841075
 20
15.77081898810808
 30
0.0
 40
0.1666666666666123
100
AcDbArc
 50
119.9816393688877
 51
240.0183606311309
  0
ARC
  5
A0
102
{ACAD_REACTORS
330
AF
102
}
330
4E
100
AcDbEntity
  8
1
  6
Continuous
 62
     7
100
AcDbCircle
 10
616.894227250334
 20
13.54084013614078
 30
0.0
 40
0.6666666666666288
100
AcDbArc
 50
180.0000000000102
 51
240.0183606311582
  0
ARC
  5
A1
102
{ACAD_REACTORS
330
B0
102
}
330
4E
100
AcDbEntity
  8
1
  6
Continuous
 62
     7
100
AcDbCircle
 10
619.2275605836674
 20
16.10415232144134
 30
0.0
 40
0.1666666666667099
100
AcDbArc
 50
209.9999999999627
 51
330.0000000000177
  0
MTEXT
  5
A3
330
4E
100
AcDbEntity
  8
1
 62
     7
100
AcDbMText
 10
597.2275605836674
 20
13.33145840886413
 30
0.0
 40
4.5
 41
0.0
 71
     5
 72
     1
  1
1:1
  7
CONVERTER_11
 73
     1
 44
1.32052821128451
  0
MTEXT
  5
A4
330
4E
100
AcDbEntity
  8
1
 62
     7
100
AcDbMText
 10
597.2275605836674
 20
19.53145840886406
 30
0.0
 40
3.0
 41
0.0
 71
     5
 72
     1
  1
Scale
  7
CONVERTER_11
 73
     1
 44
1.32052821128451
  0
MTEXT
  5
A5
330
4E
100
AcDbEntity
  8
1
 62
     7
100
AcDbMText
 10
484.8275605836673
 20
15.77081898810808
 30
0.0
 40
4.5
 41
0.0
 71
     4
 72
     1
  1
JCVP 24\PSurface mounting housing, 2 levers, PG21 - JEI
  7
CONVERTER_11
 73
     1
 44
0.90036014405762
  0
MTEXT
  5
A6
330
4E
100
AcDbEntity
  8
1
 62
     7
100
AcDbMText
 10
492.0512598949242
 20
197.2708189881082
 30
0.0
 40
4.0
 41
0.0
 71
     5
 72
     1
  1
Diritti riservati      All rights reserved
  7
CONVERTER_11
 73
     1
 44
1.32052821128451
  0
MTEXT
  5
A8
330
4E
100
AcDbEntity
  8
1
 62
     7
100
AcDbMText
 10
463.5512598949246
 20
20.77081898810803
 30
0.0
 40
2.5
 41
0.0
 71
     5
 72
     1
  1
dimensions in mm
  7
CONVERTER_12
 73
     1
 44
0.60024009603842
  0
MTEXT
  5
A9
330
4E
100
AcDbEntity
  8
1
 62
     7
100
AcDbMText
 10
449.5512598949246
 20
15.77081898810796
 30
0.0
 40
3.0
 41
0.0
 71
     4
 72
     1
  1
Date
  7
CONVERTER_11
 73
     1
 44
1.32052821128451
  0
MTEXT
  5
AA
330
4E
100
AcDbEntity
  8
1
 62
     7
100
AcDbMText
 10
460.1512598949246
 20
15.77081898810796
 30
0.0
 40
3.0
 41
0.0
 71
     4
 72
     1
  1
26/03/14
  7
CONVERTER_11
 73
     1
 44
1.32052821128451
  0
MTEXT
  5
AB
330
4E
100
AcDbEntity
  8
1
 62
     7
100
AcDbMText
 10
449.5512598949246
 20
10.77081898810795
 30
0.0
 40
3.0
 41
0.0
 71
     4
 72
     1
  1
Sign.
  7
CONVERTER_11
 73
     1
 44
1.32052821128451
  0
MTEXT
  5
AC
330
4E
100
AcDbEntity
  8
1
 62
     7
100
AcDbMText
 10
460.1512598949246
 20
10.77081898810795
 30
0.0
 40
3.0
 41
0.0
 71
     4
 72
     1
  1
Radice
  7
CONVERTER_11
 73
     1
 44
1.32052821128451
  0
HATCH
  5
AD
330
4E
100
AcDbEntity
  8
1
  6
Continuous
 62
     7
100
AcDbHatch
 10
0.0
 20
0.0
 30
0.0
210
0.0
220
0.0
230
1.0
  2
SOLID
 70
     1
 71
     1
 91
        1
 92
        1
 93
       14
 72
     2
 10
621.894227250334
 20
18.19331914827545
 40
0.333333333333374
 50
60.01836063114968
 51
180.0
 73
     1
 72
     1
 10
621.5608939170007
 20
18.19331914827545
 11
621.5608939170007
 21
13.34831882794071
 72
     2
 10
621.894227250334
 20
13.34831882794071
 40
0.3333333333332575
 50
180.0
 51
299.9816393688502
 73
     1
 72
     1
 10
622.0608014014972
 20
13.05959029925781
 11
623.3941347348305
 21
13.82882106848841
 72
     2
 10
623.2275605836674
 20
14.11754959717131
 40
0.3333333333333187
 50
299.9816393688333
 51
479.9816393688409
 73
     1
 72
     1
 10
623.0609864325041
 20
14.40627812585432
 11
622.2275605836674
 21
13.92545552075602
 72
     1
 10
622.2275605836674
 20
13.92545552075602
 11
622.2275605836674
 21
15.43748565477471
 72
     1
 10
622.2275605836674
 20
15.43748565477471
 11
623.2275605836674
 21
15.43748565477471
 72
     2
 10
623.2275605836674
 20
15.77081898810808
 40
0.3333333333333695
 50
270.0
 51
450.0
 73
     1
 72
     1
 10
623.2275605836674
 20
16.10415232144134
 11
622.2275605836674
 21
16.10415232144134
 72
     1
 10
622.2275605836674
 20
16.10415232144134
 11
622.2275605836674
 21
17.61618245546003
 72
     1
 10
622.2275605836674
 20
17.61618245546003
 11
623.0609864325041
 21
17.13535985036184
 72
     2
 10
623.2275605836674
 20
17.42408837904474
 40
0.333333333333374
 50
240.0183606311496
 51
420.0183606311565
 73
     1
 72
     1
 10
623.3941347348305
 20
17.71281690772752
 11
622.0608014014972
 21
18.48204767695835
 97
       14
330
93
330
6B
330
6A
330
69
330
92
330
68
330
67
330
66
330
91
330
65
330
9C
330
83
330
9D
330
6C
 75
     0
 76
     1
 98
        1
 10
0.0
 20
0.0
  0
HATCH
  5
AE
330
4E
100
AcDbEntity
  8
1
  6
Continuous
 62
     7
100
AcDbHatch
 10
0.0
 20
0.0
 30
0.0
210
0.0
220
0.0
230
1.0
  2
SOLID
 70
     1
 71
     1
 91
        1
 92
        1
 93
        5
 72
     2
 10
615.2275605836674
 20
17.42408837904474
 40
0.3333333333332575
 50
0.0
 51
180.0
 73
     1
 72
     1
 10
614.894227250334
 20
17.42408837904474
 11
614.894227250334
 21
14.11754959717131
 72
     2
 10
615.2275605836674
 20
14.11754959717131
 40
0.3333333333333712
 50
180.0
 51
360.0
 73
     1
 72
     1
 10
615.5608939170006
 20
14.11754959717131
 11
615.5608939170006
 21
14.31007090537138
 72
     1
 10
615.5608939170006
 20
14.31007090537138
 11
615.5608939170006
 21
17.42408837904474
 97
        5
330
95
330
6D
330
94
330
6E
330
6F
 75
     0
 76
     1
 98
        1
 10
0.0
 20
0.0
  0
HATCH
  5
AF
330
4E
100
AcDbEntity
  8
1
  6
Continuous
 62
     7
100
AcDbHatch
 10
0.0
 20
0.0
 30
0.0
210
0.0
220
0.0
230
1.0
  2
SOLID
 70
     1
 71
     1
 91
        1
 92
        1
 93
        7
 72
     2
 10
616.5608939170006
 20
18.19331914827545
 40
0.3333333333333712
 50
0.0
 51
180.0
 73
     1
 72
     1
 10
616.2275605836674
 20
18.19331914827545
 11
616.2275605836674
 21
13.54084013614066
 72
     2
 10
616.894227250334
 20
13.54084013614078
 40
0.6666666666666288
 50
180.0000000000102
 51
240.0183606311582
 73
     1
 72
     1
 10
616.5610789480077
 20
12.96338307877498
 11
618.7276530991708
 21
11.71343645310388
 72
     2
 10
618.894227250334
 20
12.00216498178678
 40
0.3333333333333755
 50
240.0183606311498
 51
420.0183606311497
 73
     1
 72
     1
 10
619.0608014014972
 20
12.29089351046968
 11
616.894227250334
 21
13.54084013614078
 72
     1
 10
616.894227250334
 20
13.54084013614078
 11
616.894227250334
 21
18.19331914827545
 97
        7
330
97
330
73
330
A0
330
70
330
96
330
71
330
72
 75
     0
 76
     1
 98
        1
 10
0.0
 20
0.0
  0
HATCH
  5
B0
330
4E
100
AcDbEntity
  8
1
  6
Continuous
 62
     7
100
AcDbHatch
 10
0.0
 20
0.0
 30
0.0
210
0.0
220
0.0
230
1.0
  2
SOLID
 70
     1
 71
     1
 91
        1
 92
        1
 93
       16
 72
     2
 10
620.6292610378587
 20
19.00203630014266
 40
0.2649662124753149
 50
210.0000000000237
 51
360.0
 73
     0
 72
     1
 10
620.894227250334
 20
19.00203630014266
 11
620.894227250334
 21
12.57908805870987
 72
     2
 10
620.5608939170007
 20
12.57908805870987
 40
0.3333333333333712
 50
0.0
 51
180.0
 73
     0
 72
     1
 10
620.2275605836674
 20
12.57908805870987
 11
620.2275605836674
 21
15.77081898810808
 72
     1
 10
620.2275605836674
 20
15.77081898810808
 11
620.2275605836674
 21
17.50286979567692
 72
     1
 10
620.2275605836674
 20
17.50286979567692
 11
619.3718981509647
 21
16.02081898810808
 72
     2
 10
619.2275605836674
 20
16.10415232144134
 40
0.1666666666667099
 50
29.99999999998231
 51
150.0000000000373
 73
     0
 72
     1
 10
619.0832230163699
 20
16.02081898810808
 11
618.2275605836674
 21
17.50286979567692
 72
     1
 10
618.2275605836674
 20
17.50286979567692
 11
618.2275605836674
 21
15.77081898810808
 72
     1
 10
618.2275605836674
 20
15.77081898810808
 11
618.2275605836674
 21
14.11840406074099
 72
     2
 10
617.894227250334
 20
14.11840406074099
 40
0.3333333333333712
 50
0.0
 51
180.0
 73
     0
 72
     1
 10
617.5608939170006
 20
14.11840406074099
 11
617.5608939170006
 21
15.77081898810808
 72
     1
 10
617.5608939170006
 20
15.77081898810808
 11
617.5608939170006
 21
19.00203630014266
 72
     2
 10
617.8258601294759
 20
19.00203630014266
 40
0.2649662124753301
 50
180.0
 51
329.9999999999886
 73
     0
 72
     1
 10
618.0553276006241
 20
19.13451940638037
 11
619.2275605836674
 21
17.10415232144134
 72
     1
 10
619.2275605836674
 20
17.10415232144134
 11
620.3997935667106
 21
19.13451940638037
 97
       16
330
79
330
9B
330
7A
330
78
330
9A
330
77
330
7F
330
80
330
A1
330
81
330
82
330
76
330
99
330
75
330
98
330
74
 75
     0
 76
     1
 98
        1
 10
0.0
 20
0.0
  0
ENDBLK
  5
50
330
4E
100
AcDbEntity
  8
0
100
AcDbBlockEnd
  0
BLOCK
  5
53
330
51
100
AcDbEntity
  8
0
100
AcDbBlockBegin
  2
A4_oriz
 70
     0
 10
637.5512598949247
 20
3.27081898810808
 30
0.0
  3
A4_oriz
  1

  0
INSERT
  5
52
330
51
100
AcDbEntity
  8
1
100
AcDbBlockReference
  2
_formato_A4
 10
637.5512598949247
 20
3.27081898810808
 30
0.0
  0
ENDBLK
  5
54
330
51
100
AcDbEntity
  8
0
100
AcDbBlockEnd
  0
BLOCK
  5
728
330
720
100
AcDbEntity
  8
0
100
AcDbBlockBegin
  2
*D3
 70
     1
 10
0.0
 20
0.0
 30
0.0
  3
*D3
  1

  0
LINE
  5
721
330
720
100
AcDbEntity
  8
Bemaßungen_TC_020513_DIN_
  6
Continuous
 62
     7
100
AcDbLine
 10
525.2039756446621
 20
85.5507994475641
 30
0.0
 11
525.2039756446621
 21
114.6547994475641
 31
0.0
  0
LINE
  5
722
330
720
100
AcDbEntity
  8
Bemaßungen_TC_020513_DIN_
  6
Continuous
 62
     7
100
AcDbLine
 10
517.1783611423726
 20
114.6547994475641
 30
0.0
 11
527.2039756446621
 21
114.6547994475641
 31
0.0
  0
LINE
  5
723
330
720
100
AcDbEntity
  8
Bemaßungen_TC_020513_DIN_
  6
Continuous
 62
     7
100
AcDbLine
 10
517.1783611423726
 20
85.5507994475641
 30
0.0
 11
527.2039756446621
 21
85.5507994475641
 31
0.0
  0
SOLID
  5
724
330
720
100
AcDbEntity
  8
Bemaßungen_TC_020513_DIN_
 62
     7
100
AcDbTrace
 10
525.5331068886306
 20
112.1547994475641
 30
0.0
 11
524.8748444006936
 21
112.1547994475641
 31
0.0
 12
525.2039756446621
 22
114.6547994475641
 32
0.0
 13
525.2039756446621
 23
114.6547994475641
 33
0.0
  0
SOLID
  5
725
330
720
100
AcDbEntity
  8
Bemaßungen_TC_020513_DIN_
 62
     7
100
AcDbTrace
 10
524.8748444006936
 20
88.0507994475641
 30
0.0
 11
525.5331068886306
 21
88.0507994475641
 31
0.0
 12
525.2039756446621
 22
85.5507994475641
 32
0.0
 13
525.2039756446621
 23
85.5507994475641
 33
0.0
  0
MTEXT
  5
727
330
720
100
AcDbEntity
  8
Bemaßungen_TC_020513_DIN_
 62
     7
100
AcDbMText
 10
522.195050963837
 20
96.33531763765053
 30
0.0
 40
3.5
 41
0.0
 71
     7
 72
     1
  1
PG21
  7
CONVERTER_13
 11
0.0
 21
1.0
 31
0.0
 73
     1
 44
0.45454545454545
  0
ENDBLK
  5
729
330
720
100
AcDbEntity
  8
0
100
AcDbBlockEnd
  0
BLOCK
  5
733
330
72C
100
AcDbEntity
  8
0
100
AcDbBlockBegin
  2
*D4
 70
     1
 10
0.0
 20
0.0
 30
0.0
  3
*D4
  1

  0
LINE
  5
72D
330
72C
100
AcDbEntity
  8
Bemaßungen_TC_020513_DIN_
  6
Continuous
 62
     7
100
AcDbLine
 10
527.6123111140889
 20
177.7127994475642
 30
0.0
 11
360.7444111706567
 21
177.7127994475642
 31
0.0
  0
LINE
  5
72E
330
72C
100
AcDbEntity
  8
Bemaßungen_TC_020513_DIN_
  6
Continuous
 62
     7
100
AcDbLine
 10
360.7444111706567
 20
126.7127994475642
 30
0.0
 11
360.7444111706567
 21
179.7127994475642
 31
0.0
  0
LINE
  5
72F
330
72C
100
AcDbEntity
  8
Bemaßungen_TC_020513_DIN_
  6
Continuous
 62
     7
100
AcDbLine
 10
527.6123111140889
 20
126.7127994475642
 30
0.0
 11
527.6123111140889
 21
179.7127994475642
 31
0.0
  0
SOLID
  5
730
330
72C
100
AcDbEntity
  8
Bemaßungen_TC_020513_DIN_
 62
     7
100
AcDbTrace
 10
363.2444111706567
 20
178.0419306915327
 30
0.0
 11
363.2444111706567
 21
177.3836682035957
 31
0.0
 12
360.7444111706567
 22
177.7127994475642
 32
0.0
 13
360.7444111706567
 23
177.7127994475642
 33
0.0
  0
SOLID
  5
731
330
72C
100
AcDbEntity
  8
Bemaßungen_TC_020513_DIN_
 62
     7
100
AcDbTrace
 10
525.1123111140889
 20
177.3836682035957
 30
0.0
 11
525.1123111140889
 21
178.0419306915327
 31
0.0
 12
527.6123111140889
 22
177.7127994475642
 32
0.0
 13
527.6123111140889
 23
177.7127994475642
 33
0.0
  0
MTEXT
  5
732
330
72C
100
AcDbEntity
  8
Bemaßungen_TC_020513_DIN_
 62
     7
100
AcDbMText
 10
442.5649550486938
 20
180.702482003407
 30
0.0
 40
3.5
 41
0.0
 71
     7
 72
     1
  1
167
  7
CONVERTER_13
 11
0.9999999999970619
 21
2.424068405545306E-6
 31
0.0
 73
     1
 44
0.45454545454545
  0
ENDBLK
  5
734
330
72C
100
AcDbEntity
  8
0
100
AcDbBlockEnd
  0
BLOCK
  5
73E
330
737
100
AcDbEntity
  8
0
100
AcDbBlockBegin
  2
*D5
 70
     1
 10
0.0
 20
0.0
 30
0.0
  3
*D5
  1

  0
LINE
  5
738
330
737
100
AcDbEntity
  8
Bemaßungen_TC_020513_DIN_
  6
Continuous
 62
     7
100
AcDbLine
 10
601.9599266518221
 20
177.7127994475645
 30
0.0
 11
544.9599266518221
 21
177.7127994475645
 31
0.0
  0
LINE
  5
739
330
737
100
AcDbEntity
  8
Bemaßungen_TC_020513_DIN_
  6
Continuous
 62
     7
100
AcDbLine
 10
544.9599266518221
 20
141.7127994475645
 30
0.0
 11
544.9599266518221
 21
179.7127994475645
 31
0.0
  0
LINE
  5
73A
330
737
100
AcDbEntity
  8
Bemaßungen_TC_020513_DIN_
  6
Continuous
 62
     7
100
AcDbLine
 10
601.9599266518221
 20
141.7127994475645
 30
0.0
 11
601.9599266518221
 21
179.7127994475645
 31
0.0
  0
SOLID
  5
73B
330
737
100
AcDbEntity
  8
Bemaßungen_TC_020513_DIN_
 62
     7
100
AcDbTrace
 10
547.4599266518221
 20
178.041930691533
 30
0.0
 11
547.4599266518221
 21
177.383668203596
 31
0.0
 12
544.9599266518221
 22
177.7127994475645
 32
0.0
 13
544.9599266518221
 23
177.7127994475645
 33
0.0
  0
SOLID
  5
73C
330
737
100
AcDbEntity
  8
Bemaßungen_TC_020513_DIN_
 62
     7
100
AcDbTrace
 10
599.4599266518221
 20
177.383668203596
 30
0.0
 11
599.4599266518221
 21
178.041930691533
 31
0.0
 12
601.9599266518221
 22
177.7127994475645
 32
0.0
 13
601.9599266518221
 23
177.7127994475645
 33
0.0
  0
MTEXT
  5
73D
330
737
100
AcDbEntity
  8
Bemaßungen_TC_020513_DIN_
 62
     7
100
AcDbMText
 10
572.3647720360876
 20
180.7055702456884
 30
0.0
 40
3.5
 41
0.0
 71
     7
 72
     1
  1
57
  7
CONVERTER_13
 11
0.9999999999970619
 21
2.424068405545306E-6
 31
0.0
 73
     1
 44
0.45454545454545
  0
ENDBLK
  5
73F
330
737
100
AcDbEntity
  8
0
100
AcDbBlockEnd
  0
BLOCK
  5
749
330
742
100
AcDbEntity
  8
0
100
AcDbBlockBegin
  2
*D6
 70
     1
 10
0.0
 20
0.0
 30
0.0
  3
*D6
  1

  0
LINE
  5
743
330
742
100
AcDbEntity
  8
Bemaßungen_TC_020513_DIN_
  6
Continuous
 62
     7
100
AcDbLine
 10
534.6144274868042
 20
80.71279944756459
 30
0.0
 11
534.6144274868042
 21
143.7127994475646
 31
0.0
  0
LINE
  5
744
330
742
100
AcDbEntity
  8
Bemaßungen_TC_020513_DIN_
  6
Continuous
 62
     7
100
AcDbLine
 10
502.3283611423725
 20
143.7127994475646
 30
0.0
 11
536.6144274868042
 21
143.7127994475646
 31
0.0
  0
LINE
  5
745
330
742
100
AcDbEntity
  8
Bemaßungen_TC_020513_DIN_
  6
Continuous
 62
     7
100
AcDbLine
 10
498.1783611423725
 20
80.71279944756459
 30
0.0
 11
536.6144274868042
 21
80.71279944756459
 31
0.0
  0
SOLID
  5
746
330
742
100
AcDbEntity
  8
Bemaßungen_TC_020513_DIN_
 62
     7
100
AcDbTrace
 10
534.9435587307727
 20
141.2127994475646
 30
0.0
 11
534.2852962428357
 21
141.2127994475646
 31
0.0
 12
534.6144274868042
 22
143.7127994475646
 32
0.0
 13
534.6144274868042
 23
143.7127994475646
 33
0.0
  0
SOLID
  5
747
330
742
100
AcDbEntity
  8
Bemaßungen_TC_020513_DIN_
 62
     7
100
AcDbTrace
 10
534.2852962428357
 20
83.21279944756459
 30
0.0
 11
534.9435587307727
 21
83.21279944756459
 31
0.0
 12
534.6144274868042
 22
80.71279944756459
 32
0.0
 13
534.6144274868042
 23
80.71279944756459
 33
0.0
  0
MTEXT
  5
748
330
742
100
AcDbEntity
  8
Bemaßungen_TC_020513_DIN_
 62
     7
100
AcDbMText
 10
531.6223574821208
 20
111.1080950364687
 30
0.0
 40
3.5
 41
0.0
 71
     7
 72
     1
  1
63
  7
CONVERTER_13
 11
0.0
 21
1.0
 31
0.0
 73
     1
 44
0.45454545454545
  0
ENDBLK
  5
74A
330
742
100
AcDbEntity
  8
0
100
AcDbBlockEnd
  0
BLOCK
  5
754
330
74D
100
AcDbEntity
  8
0
100
AcDbBlockBegin
  2
*D7
 70
     1
 10
0.0
 20
0.0
 30
0.0
  3
*D7
  1

  0
LINE
  5
74E
330
74D
100
AcDbEntity
  8
Bemaßungen_TC_020513_DIN_
  6
Continuous
 62
     7
100
AcDbLine
 10
621.6605503328309
 20
161.7127994475644
 30
0.0
 11
621.6605503328309
 21
80.71279944756441
 31
0.0
  0
LINE
  5
74F
330
74D
100
AcDbEntity
  8
Bemaßungen_TC_020513_DIN_
  6
Continuous
 62
     7
100
AcDbLine
 10
602.9599266518121
 20
80.71279944756441
 30
0.0
 11
623.6605503328309
 21
80.71279944756441
 31
0.0
  0
LINE
  5
750
330
74D
100
AcDbEntity
  8
Bemaßungen_TC_020513_DIN_
  6
Continuous
 62
     7
100
AcDbLine
 10
598.2599266518214
 20
161.7127994475644
 30
0.0
 11
623.6605503328309
 21
161.7127994475644
 31
0.0
  0
SOLID
  5
751
330
74D
100
AcDbEntity
  8
Bemaßungen_TC_020513_DIN_
 62
     7
100
AcDbTrace
 10
621.3314190888624
 20
83.21279944756441
 30
0.0
 11
621.9896815767994
 21
83.21279944756441
 31
0.0
 12
621.6605503328309
 22
80.71279944756441
 32
0.0
 13
621.6605503328309
 23
80.71279944756441
 33
0.0
  0
SOLID
  5
752
330
74D
100
AcDbEntity
  8
Bemaßungen_TC_020513_DIN_
 62
     7
100
AcDbTrace
 10
621.9896815767994
 20
159.2127994475644
 30
0.0
 11
621.3314190888624
 21
159.2127994475644
 31
0.0
 12
621.6605503328309
 22
161.7127994475644
 32
0.0
 13
621.6605503328309
 23
161.7127994475644
 33
0.0
  0
MTEXT
  5
753
330
74D
100
AcDbEntity
  8
Bemaßungen_TC_020513_DIN_
 62
     7
100
AcDbMText
 10
618.670867776988
 20
120.6397480605703
 30
0.0
 40
3.5
 41
0.0
 71
     7
 72
     1
  1
81
  7
CONVERTER_13
 11
0.0
 21
1.0
 31
0.0
 73
     1
 44
0.45454545454545
  0
ENDBLK
  5
755
330
74D
100
AcDbEntity
  8
0
100
AcDbBlockEnd
  0
BLOCK
  5
75F
330
758
100
AcDbEntity
  8
0
100
AcDbBlockBegin
  2
*D8
 70
     1
 10
0.0
 20
0.0
 30
0.0
  3
*D8
  1

  0
LINE
  5
759
330
758
100
AcDbEntity
  8
Bemaßungen_TC_020513_DIN_
  6
Continuous
 62
     7
100
AcDbLine
 10
613.6973403563809
 20
75.7127994475641
 30
0.0
 11
613.6973403563809
 21
97.487715243389
 31
0.0
  0
LINE
  5
75A
330
758
100
AcDbEntity
  8
Bemaßungen_TC_020513_DIN_
  6
Continuous
 62
     7
100
AcDbLine
 10
602.9599266518125
 20
84.7127994475641
 30
0.0
 11
615.6973403563809
 21
84.7127994475641
 31
0.0
  0
LINE
  5
75B
330
758
100
AcDbEntity
  8
Bemaßungen_TC_020513_DIN_
  6
Continuous
 62
     7
100
AcDbLine
 10
602.9599266518125
 20
80.7127994475641
 30
0.0
 11
615.6973403563809
 21
80.7127994475641
 31
0.0
  0
SOLID
  5
75C
330
758
100
AcDbEntity
  8
Bemaßungen_TC_020513_DIN_
 62
     7
100
AcDbTrace
 10
613.3682091124124
 20
87.2127994475641
 30
0.0
 11
614.0264716003494
 21
87.2127994475641
 31
0.0
 12
613.6973403563809
 22
84.7127994475641
 32
0.0
 13
613.6973403563809
 23
84.7127994475641
 33
0.0
  0
SOLID
  5
75D
330
758
100
AcDbEntity
  8
Bemaßungen_TC_020513_DIN_
 62
     7
100
AcDbTrace
 10
614.0264716003494
 20
78.2127994475641
 30
0.0
 11
613.3682091124124
 21
78.2127994475641
 31
0.0
 12
613.6973403563809
 22
80.7127994475641
 32
0.0
 13
613.6973403563809
 23
80.7127994475641
 33
0.0
  0
MTEXT
  5
75E
330
758
100
AcDbEntity
  8
Bemaßungen_TC_020513_DIN_
 62
     7
100
AcDbMText
 10
610.7903751822516
 20
95.352715243389
 30
0.0
 40
3.5
 41
0.0
 71
     7
 72
     1
  1
4
  7
CONVERTER_13
 11
0.0
 21
1.0
 31
0.0
 73
     1
 44
0.45454545454545
  0
ENDBLK
  5
760
330
758
100
AcDbEntity
  8
0
100
AcDbBlockEnd
  0
BLOCK
  5
76A
330
763
100
AcDbEntity
  8
0
100
AcDbBlockBegin
  2
*D9
 70
     1
 10
0.0
 20
0.0
 30
0.0
  3
*D9
  1

  0
LINE
  5
764
330
763
100
AcDbEntity
  8
Bemaßungen_TC_020513_DIN_
  6
Continuous
 62
     7
100
AcDbLine
 10
595.9599266518145
 20
66.71279944756417
 30
0.0
 11
550.9599266518145
 21
66.71279944756417
 31
0.0
  0
LINE
  5
765
330
763
100
AcDbEntity
  8
Bemaßungen_TC_020513_DIN_
  6
Continuous
 62
     7
100
AcDbLine
 10
550.9599266518145
 20
81.71279944756421
 30
0.0
 11
550.9599266518145
 21
64.71279944756417
 31
0.0
  0
LINE
  5
766
330
763
100
AcDbEntity
  8
Bemaßungen_TC_020513_DIN_
  6
Continuous
 62
     7
100
AcDbLine
 10
595.9599266518145
 20
81.71279944756421
 30
0.0
 11
595.9599266518145
 21
64.71279944756417
 31
0.0
  0
SOLID
  5
767
330
763
100
AcDbEntity
  8
Bemaßungen_TC_020513_DIN_
 62
     7
100
AcDbTrace
 10
553.4599266518145
 20
67.04193069153266
 30
0.0
 11
553.4599266518145
 21
66.38366820359568
 31
0.0
 12
550.9599266518145
 22
66.71279944756417
 32
0.0
 13
550.9599266518145
 23
66.71279944756417
 33
0.0
  0
SOLID
  5
768
330
763
100
AcDbEntity
  8
Bemaßungen_TC_020513_DIN_
 62
     7
100
AcDbTrace
 10
593.4599266518145
 20
66.38366820359568
 30
0.0
 11
593.4599266518145
 21
67.04193069153266
 31
0.0
 12
595.9599266518145
 22
66.71279944756417
 32
0.0
 13
595.9599266518145
 23
66.71279944756417
 33
0.0
  0
MTEXT
  5
769
330
763
100
AcDbEntity
  8
Bemaßungen_TC_020513_DIN_
 62
     7
100
AcDbMText
 10
572.2812113266667
 20
69.69686377802644
 30
0.0
 40
3.5
 41
0.0
 71
     7
 72
     1
  1
45
  7
CONVERTER_13
 11
0.9999999999970619
 21
2.424068405545306E-6
 31
0.0
 73
     1
 44
0.45454545454545
  0
ENDBLK
  5
76B
330
763
100
AcDbEntity
  8
0
100
AcDbBlockEnd
  0
BLOCK
  5
775
330
76E
100
AcDbEntity
  8
0
100
AcDbBlockBegin
  2
*D10
 70
     1
 10
0.0
 20
0.0
 30
0.0
  3
*D10
  1

  0
LINE
  5
76F
330
76E
100
AcDbEntity
  8
Bemaßungen_TC_020513_DIN_
  6
Continuous
 62
     7
100
AcDbLine
 10
544.9599266518121
 20
57.15819045940155
 30
0.0
 11
601.9599266518121
 21
57.15819045940155
 31
0.0
  0
LINE
  5
770
330
76E
100
AcDbEntity
  8
Bemaßungen_TC_020513_DIN_
  6
Continuous
 62
     7
100
AcDbLine
 10
601.9599266518121
 20
81.71279944756411
 30
0.0
 11
601.9599266518121
 21
55.15819045940155
 31
0.0
  0
LINE
  5
771
330
76E
100
AcDbEntity
  8
Bemaßungen_TC_020513_DIN_
  6
Continuous
 62
     7
100
AcDbLine
 10
544.9599266518121
 20
81.71279944756411
 30
0.0
 11
544.9599266518121
 21
55.15819045940155
 31
0.0
  0
SOLID
  5
772
330
76E
100
AcDbEntity
  8
Bemaßungen_TC_020513_DIN_
 62
     7
100
AcDbTrace
 10
599.4599266518121
 20
56.82905921543306
 30
0.0
 11
599.4599266518121
 21
57.48732170337004
 31
0.0
 12
601.9599266518121
 22
57.15819045940155
 32
0.0
 13
601.9599266518121
 23
57.15819045940155
 33
0.0
  0
SOLID
  5
773
330
76E
100
AcDbEntity
  8
Bemaßungen_TC_020513_DIN_
 62
     7
100
AcDbTrace
 10
547.4599266518121
 20
57.48732170337004
 30
0.0
 11
547.4599266518121
 21
56.82905921543306
 31
0.0
 12
544.9599266518121
 22
57.15819045940155
 32
0.0
 13
544.9599266518121
 23
57.15819045940155
 33
0.0
  0
MTEXT
  5
774
330
76E
100
AcDbEntity
  8
Bemaßungen_TC_020513_DIN_
 62
     7
100
AcDbMText
 10
572.3647720360776
 20
60.15096125752554
 30
0.0
 40
3.5
 41
0.0
 71
     7
 72
     1
  1
57
  7
CONVERTER_13
 11
0.9999999999970619
 21
2.424068405545306E-6
 31
0.0
 73
     1
 44
0.45454545454545
  0
ENDBLK
  5
776
330
76E
100
AcDbEntity
  8
0
100
AcDbBlockEnd
  0
BLOCK
  5
780
330
779
100
AcDbEntity
  8
0
100
AcDbBlockBegin
  2
*D11
 70
     1
 10
0.0
 20
0.0
 30
0.0
  3
*D11
  1

  0
LINE
  5
77A
330
779
100
AcDbEntity
  8
Bemaßungen_TC_020513_DIN_
  6
Continuous
 62
     7
100
AcDbLine
 10
378.1783611423728
 20
65.83856921643907
 30
0.0
 11
510.1783611423728
 21
65.83856921643907
 31
0.0
  0
LINE
  5
77B
330
779
100
AcDbEntity
  8
Bemaßungen_TC_020513_DIN_
  6
Continuous
 62
     7
100
AcDbLine
 10
510.1783611423728
 20
81.7127994475641
 30
0.0
 11
510.1783611423728
 21
63.83856921643907
 31
0.0
  0
LINE
  5
77C
330
779
100
AcDbEntity
  8
Bemaßungen_TC_020513_DIN_
  6
Continuous
 62
     7
100
AcDbLine
 10
378.1783611423728
 20
81.7127994475641
 30
0.0
 11
378.1783611423728
 21
63.83856921643907
 31
0.0
  0
SOLID
  5
77D
330
779
100
AcDbEntity
  8
Bemaßungen_TC_020513_DIN_
 62
     7
100
AcDbTrace
 10
507.6783611423728
 20
65.50943797247058
 30
0.0
 11
507.6783611423728
 21
66.16770046040756
 31
0.0
 12
510.1783611423728
 22
65.83856921643907
 32
0.0
 13
510.1783611423728
 23
65.83856921643907
 33
0.0
  0
SOLID
  5
77E
330
779
100
AcDbEntity
  8
Bemaßungen_TC_020513_DIN_
 62
     7
100
AcDbTrace
 10
380.6783611423728
 20
66.16770046040756
 30
0.0
 11
380.6783611423728
 21
65.50943797247058
 31
0.0
 12
378.1783611423728
 22
65.83856921643907
 32
0.0
 13
378.1783611423728
 23
65.83856921643907
 33
0.0
  0
MTEXT
  5
77F
330
779
100
AcDbEntity
  8
Bemaßungen_TC_020513_DIN_
 62
     7
100
AcDbMText
 10
442.6003609149968
 20
68.83063922112234
 30
0.0
 40
3.5
 41
0.0
 71
     7
 72
     1
  1
132
  7
CONVERTER_13
 11
0.9999999999970619
 21
2.424068405545306E-6
 31
0.0
 73
     1
 44
0.45454545454545
  0
ENDBLK
  5
781
330
779
100
AcDbEntity
  8
0
100
AcDbBlockEnd
  0
BLOCK
  5
78B
330
784
100
AcDbEntity
  8
0
100
AcDbBlockBegin
  2
*D12
 70
     1
 10
0.0
 20
0.0
 30
0.0
  3
*D12
  1

  0
LINE
  5
785
330
784
100
AcDbEntity
  8
Bemaßungen_TC_020513_DIN_
  6
Continuous
 62
     7
100
AcDbLine
 10
516.1783611423728
 20
57.15819045940151
 30
0.0
 11
372.1783611423729
 21
57.15819045940151
 31
0.0
  0
LINE
  5
786
330
784
100
AcDbEntity
  8
Bemaßungen_TC_020513_DIN_
  6
Continuous
 62
     7
100
AcDbLine
 10
372.1783611423729
 20
81.71279944756411
 30
0.0
 11
372.1783611423729
 21
55.15819045940151
 31
0.0
  0
LINE
  5
787
330
784
100
AcDbEntity
  8
Bemaßungen_TC_020513_DIN_
  6
Continuous
 62
     7
100
AcDbLine
 10
516.1783611423728
 20
81.71279944756411
 30
0.0
 11
516.1783611423728
 21
55.15819045940151
 31
0.0
  0
SOLID
  5
788
330
784
100
AcDbEntity
  8
Bemaßungen_TC_020513_DIN_
 62
     7
100
AcDbTrace
 10
374.6783611423729
 20
57.48732170337
 30
0.0
 11
374.6783611423729
 21
56.82905921543302
 31
0.0
 12
372.1783611423729
 22
57.15819045940151
 32
0.0
 13
372.1783611423729
 23
57.15819045940151
 33
0.0
  0
SOLID
  5
789
330
784
100
AcDbEntity
  8
Bemaßungen_TC_020513_DIN_
 62
     7
100
AcDbTrace
 10
513.6783611423728
 20
56.82905921543302
 30
0.0
 11
513.6783611423728
 21
57.48732170337
 31
0.0
 12
516.1783611423728
 22
57.15819045940151
 32
0.0
 13
516.1783611423728
 23
57.15819045940151
 33
0.0
  0
MTEXT
  5
78A
330
784
100
AcDbEntity
  8
Bemaßungen_TC_020513_DIN_
 62
     7
100
AcDbMText
 10
442.5721173952151
 20
60.07077385891147
 30
0.0
 40
3.5
 41
0.0
 71
     7
 72
     1
  1
144
  7
CONVERTER_13
 11
0.9999999999970619
 21
2.424068405545306E-6
 31
0.0
 73
     1
 44
0.45454545454545
  0
ENDBLK
  5
78C
330
784
100
AcDbEntity
  8
0
100
AcDbBlockEnd
  0
ENDSEC
  0
SECTION
  2
ENTITIES
  0
INSERT
  5
55
330
1F
100
AcDbEntity
  8
0
100
AcDbBlockReference
  2
A4_oriz
 10
637.5512598949247
 20
3.27081898810808
 30
0.0
  0
POINT
  5
B1
330
1F
100
AcDbEntity
  8
Bemaßungen_TC_020513_DIN_
 62
     7
100
AcDbPoint
 10
516.178361142373
 20
114.654799447564
 30
0.0
  0
POINT
  5
B2
330
1F
100
AcDbEntity
  8
Bemaßungen_TC_020513_DIN_
 62
     7
100
AcDbPoint
 10
516.178361142373
 20
85.5507994475641
 30
0.0
  0
POINT
  5
B3
330
1F
100
AcDbEntity
  8
Bemaßungen_TC_020513_DIN_
 62
     7
100
AcDbPoint
 10
360.7444111706567
 20
125.712799447564
 30
0.0
  0
POINT
  5
B4
330
1F
100
AcDbEntity
  8
Bemaßungen_TC_020513_DIN_
 62
     7
100
AcDbPoint
 10
527.6123111140889
 20
125.712799447564
 30
0.0
  0
POINT
  5
B5
330
1F
100
AcDbEntity
  8
Bemaßungen_TC_020513_DIN_
 62
     7
100
AcDbPoint
 10
544.959926651823
 20
140.712799447564
 30
0.0
  0
POINT
  5
B6
330
1F
100
AcDbEntity
  8
Bemaßungen_TC_020513_DIN_
 62
     7
100
AcDbPoint
 10
601.959926651823
 20
140.712799447564
 30
0.0
  0
POINT
  5
B7
330
1F
100
AcDbEntity
  8
Bemaßungen_TC_020513_DIN_
 62
     7
100
AcDbPoint
 10
501.328361142373
 20
143.712799447564
 30
0.0
  0
POINT
  5
B8
330
1F
100
AcDbEntity
  8
Bemaßungen_TC_020513_DIN_
 62
     7
100
AcDbPoint
 10
497.178361142373
 20
80.71279944756411
 30
0.0
  0
POINT
  5
B9
330
1F
100
AcDbEntity
  8
Bemaßungen_TC_020513_DIN_
 62
     7
100
AcDbPoint
 10
601.9599266518121
 20
80.71279944756411
 30
0.0
  0
POINT
  5
BA
330
1F
100
AcDbEntity
  8
Bemaßungen_TC_020513_DIN_
 62
     7
100
AcDbPoint
 10
597.2599266518209
 20
161.712799447564
 30
0.0
  0
POINT
  5
BB
330
1F
100
AcDbEntity
  8
Bemaßungen_TC_020513_DIN_
 62
     7
100
AcDbPoint
 10
601.9599266518121
 20
84.71279944756411
 30
0.0
  0
POINT
  5
BC
330
1F
100
AcDbEntity
  8
Bemaßungen_TC_020513_DIN_
 62
     7
100
AcDbPoint
 10
601.9599266518121
 20
80.71279944756411
 30
0.0
  0
POINT
  5
BD
330
1F
100
AcDbEntity
  8
Bemaßungen_TC_020513_DIN_
 62
     7
100
AcDbPoint
 10
550.9599266518139
 20
82.71279944756411
 30
0.0
  0
POINT
  5
BE
330
1F
100
AcDbEntity
  8
Bemaßungen_TC_020513_DIN_
 62
     7
100
AcDbPoint
 10
595.9599266518139
 20
82.71279944756411
 30
0.0
  0
POINT
  5
BF
330
1F
100
AcDbEntity
  8
Bemaßungen_TC_020513_DIN_
 62
     7
100
AcDbPoint
 10
601.9599266518121
 20
82.71279944756411
 30
0.0
  0
POINT
  5
C0
330
1F
100
AcDbEntity
  8
Bemaßungen_TC_020513_DIN_
 62
     7
100
AcDbPoint
 10
544.9599266518121
 20
82.71279944756411
 30
0.0
  0
POINT
  5
C1
330
1F
100
AcDbEntity
  8
Bemaßungen_TC_020513_DIN_
 62
     7
100
AcDbPoint
 10
510.178361142373
 20
82.71279944756411
 30
0.0
  0
POINT
  5
C2
330
1F
100
AcDbEntity
  8
Bemaßungen_TC_020513_DIN_
 62
     7
100
AcDbPoint
 10
378.1783611423728
 20
82.71279944756411
 30
0.0
  0
POINT
  5
C3
330
1F
100
AcDbEntity
  8
Bemaßungen_TC_020513_DIN_
 62
     7
100
AcDbPoint
 10
372.1783611423728
 20
82.71279944756411
 30
0.0
  0
POINT
  5
C4
330
1F
100
AcDbEntity
  8
Bemaßungen_TC_020513_DIN_
 62
     7
100
AcDbPoint
 10
516.178361142373
 20
82.71279944756411
 30
0.0
  0
LINE
  5
C5
330
1F
100
AcDbEntity
  8
Sichtbare_Kanten_TC_020513_DIN_
  6
Continuous
 62
     7
100
AcDbLine
 10
445.928361142373
 20
107.1564660587
 30
0.0
 11
445.928361142373
 21
110.269132836429
 31
0.0
  0
LINE
  5
C6
330
1F
100
AcDbEntity
  8
Sichtbare_Kanten_TC_020513_DIN_
  6
Continuous
 62
     7
100
AcDbLine
 10
447.303250089865
 20
107.516562296189
 30
0.0
 11
446.303250089865
 21
106.939895629523
 31
0.0
  0
LINE
  5
C7
330
1F
100
AcDbEntity
  8
Sichtbare_Kanten_TC_020513_DIN_
  6
Continuous
 62
     7
100
AcDbLine
 10
446.428361142373
 20
107.589222447599
 30
0.0
 11
447.05347219488
 21
107.949703154545
 31
0.0
  0
LINE
  5
C8
330
1F
100
AcDbEntity
  8
Sichtbare_Kanten_TC_020513_DIN_
  6
Continuous
 62
     7
100
AcDbLine
 10
446.428361142373
 20
108.462799447564
 30
0.0
 11
446.428361142373
 21
107.589222447599
 31
0.0
  0
LINE
  5
C9
330
1F
100
AcDbEntity
  8
Sichtbare_Kanten_TC_020513_DIN_
  6
Continuous
 62
     7
100
AcDbLine
 10
447.178361142373
 20
108.462799447564
 30
0.0
 11
446.428361142373
 21
108.462799447564
 31
0.0
  0
LINE
  5
CA
330
1F
100
AcDbEntity
  8
Sichtbare_Kanten_TC_020513_DIN_
  6
Continuous
 62
     7
100
AcDbLine
 10
446.428361142373
 20
108.962799447564
 30
0.0
 11
447.178361142373
 21
108.962799447564
 31
0.0
  0
LINE
  5
CB
330
1F
100
AcDbEntity
  8
Sichtbare_Kanten_TC_020513_DIN_
  6
Continuous
 62
     7
100
AcDbLine
 10
446.428361142373
 20
109.836376447531
 30
0.0
 11
446.428361142373
 21
108.962799447564
 31
0.0
  0
LINE
  5
CC
330
1F
100
AcDbEntity
  8
Sichtbare_Kanten_TC_020513_DIN_
  6
Continuous
 62
     7
100
AcDbLine
 10
447.05347219488
 20
109.475895740585
 30
0.0
 11
446.428361142373
 21
109.836376447531
 31
0.0
  0
LINE
  5
CD
330
1F
100
AcDbEntity
  8
Sichtbare_Kanten_TC_020513_DIN_
  6
Continuous
 62
     7
100
AcDbLine
 10
446.303250089865
 20
110.485703265607
 30
0.0
 11
447.303250089865
 21
109.90903659894
 31
0.0
  0
LINE
  5
CE
330
1F
100
AcDbEntity
  8
Sichtbare_Kanten_TC_020513_DIN_
  6
Continuous
 62
     7
100
AcDbLine
 10
441.4283611423728
 20
109.702799447564
 30
0.0
 11
441.4283611423728
 21
107.722799447564
 31
0.0
  0
LINE
  5
CF
330
1F
100
AcDbEntity
  8
Sichtbare_Kanten_TC_020513_DIN_
  6
Continuous
 62
     7
100
AcDbLine
 10
440.9283611423728
 20
107.722799447564
 30
0.0
 11
440.9283611423728
 21
109.702799447564
 31
0.0
  0
LINE
  5
D0
330
1F
100
AcDbEntity
  8
Sichtbare_Kanten_TC_020513_DIN_
  6
Continuous
 62
     7
100
AcDbLine
 10
438.1783611423728
 20
108.712799447564
 30
0.0
 11
444.1783611423729
 21
105.252799447565
 31
0.0
  0
LINE
  5
D1
330
1F
100
AcDbEntity
  8
Sichtbare_Kanten_TC_020513_DIN_
  6
Continuous
 62
     7
100
AcDbLine
 10
444.1783611423729
 20
105.252799447565
 30
0.0
 11
450.178361142373
 21
108.712799447564
 31
0.0
  0
LINE
  5
D2
330
1F
100
AcDbEntity
  8
Sichtbare_Kanten_TC_020513_DIN_
  6
Continuous
 62
     7
100
AcDbLine
 10
450.178361142373
 20
108.712799447564
 30
0.0
 11
444.1783611423729
 21
112.172799447565
 31
0.0
  0
LINE
  5
D3
330
1F
100
AcDbEntity
  8
Sichtbare_Kanten_TC_020513_DIN_
  6
Continuous
 62
     7
100
AcDbLine
 10
444.1783611423729
 20
112.172799447565
 30
0.0
 11
438.1783611423728
 21
108.712799447564
 31
0.0
  0
LINE
  5
D4
330
1F
100
AcDbEntity
  8
Sichtbare_Kanten_TC_020513_DIN_
  6
Continuous
 62
     7
100
AcDbLine
 10
444.1783611423729
 20
104.964209725333
 30
0.0
 11
437.6779165373461
 21
108.712799447565
 31
0.0
  0
LINE
  5
D5
330
1F
100
AcDbEntity
  8
Sichtbare_Kanten_TC_020513_DIN_
  6
Continuous
 62
     7
100
AcDbLine
 10
450.6788057474
 20
108.712799447564
 30
0.0
 11
444.1783611423729
 21
104.964209725333
 31
0.0
  0
LINE
  5
D6
330
1F
100
AcDbEntity
  8
Sichtbare_Kanten_TC_020513_DIN_
  6
Continuous
 62
     7
100
AcDbLine
 10
444.1783611423729
 20
112.461389169797
 30
0.0
 11
450.6788057474
 21
108.712799447564
 31
0.0
  0
LINE
  5
D7
330
1F
100
AcDbEntity
  8
Sichtbare_Kanten_TC_020513_DIN_
  6
Continuous
 62
     7
100
AcDbLine
 10
437.6779165373461
 20
108.712799447565
 30
0.0
 11
444.1783611423729
 21
112.461389169797
 31
0.0
  0
LINE
  5
D8
330
1F
100
AcDbEntity
  8
Sichtbare_Kanten_TC_020513_DIN_
  6
Continuous
 62
     7
100
AcDbLine
 10
444.0534721948804
 20
105.78656229619
 30
0.0
 11
442.0534721948804
 21
106.939895629523
 31
0.0
  0
LINE
  5
D9
330
1F
100
AcDbEntity
  8
Sichtbare_Kanten_TC_020513_DIN_
  6
Continuous
 62
     7
100
AcDbLine
 10
442.4283611423728
 20
107.300889114265
 30
0.0
 11
444.3032500898653
 21
106.219703154545
 31
0.0
  0
LINE
  5
DA
330
1F
100
AcDbEntity
  8
Sichtbare_Kanten_TC_020513_DIN_
  6
Continuous
 62
     7
100
AcDbLine
 10
442.4283611423728
 20
110.269132836429
 30
0.0
 11
442.4283611423728
 21
107.300889114265
 31
0.0
  0
LINE
  5
DB
330
1F
100
AcDbEntity
  8
Sichtbare_Kanten_TC_020513_DIN_
  6
Continuous
 62
     7
100
AcDbLine
 10
441.9283611423728
 20
107.1564660587
 30
0.0
 11
441.9283611423728
 21
110.269132836429
 31
0.0
  0
LINE
  5
DC
330
1F
100
AcDbEntity
  8
Sichtbare_Kanten_TC_020513_DIN_
  6
Continuous
 62
     7
100
AcDbLine
 10
443.4283611423728
 20
110.093120567744
 30
0.0
 11
443.4283611423728
 21
107.722799447564
 31
0.0
  0
LINE
  5
DD
330
1F
100
AcDbEntity
  8
Sichtbare_Kanten_TC_020513_DIN_
  6
Continuous
 62
     7
100
AcDbLine
 10
444.1783611423729
 20
109.088657264636
 30
0.0
 11
443.4283611423728
 21
110.093120567744
 31
0.0
  0
LINE
  5
DE
330
1F
100
AcDbEntity
  8
Sichtbare_Kanten_TC_020513_DIN_
  6
Continuous
 62
     7
100
AcDbLine
 10
444.9283611423728
 20
110.093120567744
 30
0.0
 11
444.1783611423729
 21
109.088657264636
 31
0.0
  0
LINE
  5
DF
330
1F
100
AcDbEntity
  8
Sichtbare_Kanten_TC_020513_DIN_
  6
Continuous
 62
     7
100
AcDbLine
 10
444.9283611423728
 20
106.579799392034
 30
0.0
 11
444.9283611423728
 21
110.093120567744
 31
0.0
  0
LINE
  5
E0
330
1F
100
AcDbEntity
  8
Sichtbare_Kanten_TC_020513_DIN_
  6
Continuous
 62
     7
100
AcDbLine
 10
445.428361142373
 20
110.845799503096
 30
0.0
 11
445.428361142373
 21
106.579799392034
 31
0.0
  0
LINE
  5
E1
330
1F
100
AcDbEntity
  8
Sichtbare_Kanten_TC_020513_DIN_
  6
Continuous
 62
     7
100
AcDbLine
 10
444.1783611423729
 20
109.924372933267
 30
0.0
 11
444.9780411569977
 21
110.99537190516
 31
0.0
  0
LINE
  5
E2
330
1F
100
AcDbEntity
  8
Sichtbare_Kanten_TC_020513_DIN_
  6
Continuous
 62
     7
100
AcDbLine
 10
443.378681127748
 20
110.99537190516
 30
0.0
 11
444.1783611423729
 21
109.924372933267
 31
0.0
  0
LINE
  5
E3
330
1F
100
AcDbEntity
  8
Sichtbare_Kanten_TC_020513_DIN_
  6
Continuous
 62
     7
100
AcDbLine
 10
442.9283611423729
 20
107.722799447564
 30
0.0
 11
442.9283611423728
 21
110.845799503096
 31
0.0
  0
LINE
  5
E4
330
1F
100
AcDbEntity
  8
Sichtbare_Kanten_TC_020513_DIN_
  6
Continuous
 62
     7
100
AcDbLine
 10
391.1783611423728
 20
80.71279944756411
 30
0.0
 11
391.1783611423728
 21
84.71279944756411
 31
0.0
  0
LINE
  5
E5
330
1F
100
AcDbEntity
  8
Sichtbare_Kanten_TC_020513_DIN_
  6
Continuous
 62
     7
100
AcDbLine
 10
497.178361142373
 20
80.71279944756411
 30
0.0
 11
391.1783611423728
 21
80.71279944756411
 31
0.0
  0
LINE
  5
E6
330
1F
100
AcDbEntity
  8
Sichtbare_Kanten_TC_020513_DIN_
  6
Continuous
 62
     7
100
AcDbLine
 10
497.178361142373
 20
80.71279944756411
 30
0.0
 11
497.178361142373
 21
84.71279944756411
 31
0.0
  0
LINE
  5
E7
330
1F
100
AcDbEntity
  8
Sichtbare_Kanten_TC_020513_DIN_
  6
Continuous
 62
     7
100
AcDbLine
 10
516.178361142373
 20
80.71279944756411
 30
0.0
 11
507.1783611423729
 21
80.71279944756411
 31
0.0
  0
LINE
  5
E8
330
1F
100
AcDbEntity
  8
Sichtbare_Kanten_TC_020513_DIN_
  6
Continuous
 62
     7
100
AcDbLine
 10
507.1783611423729
 20
80.71279944756411
 30
0.0
 11
497.178361142373
 21
80.71279944756411
 31
0.0
  0
LINE
  5
E9
330
1F
100
AcDbEntity
  8
Sichtbare_Kanten_TC_020513_DIN_
  6
Continuous
 62
     7
100
AcDbLine
 10
391.1783611423728
 20
80.71279944756411
 30
0.0
 11
381.1783611423728
 21
80.71279944756411
 31
0.0
  0
LINE
  5
EA
330
1F
100
AcDbEntity
  8
Sichtbare_Kanten_TC_020513_DIN_
  6
Continuous
 62
     7
100
AcDbLine
 10
381.1783611423728
 20
80.71279944756411
 30
0.0
 11
372.1783611423728
 21
80.71279944756411
 31
0.0
  0
LINE
  5
EB
330
1F
100
AcDbEntity
  8
Sichtbare_Kanten_TC_020513_DIN_
  6
Continuous
 62
     7
100
AcDbLine
 10
381.1783611423728
 20
84.71279944756411
 30
0.0
 11
372.1783611423728
 21
84.71279944756411
 31
0.0
  0
LINE
  5
EC
330
1F
100
AcDbEntity
  8
Sichtbare_Kanten_TC_020513_DIN_
  6
Continuous
 62
     7
100
AcDbLine
 10
391.1783611423728
 20
84.71279944756411
 30
0.0
 11
381.1783611423728
 21
84.71279944756411
 31
0.0
  0
LINE
  5
ED
330
1F
100
AcDbEntity
  8
Sichtbare_Kanten_TC_020513_DIN_
  6
Continuous
 62
     7
100
AcDbLine
 10
516.178361142373
 20
80.71279944756411
 30
0.0
 11
516.178361142373
 21
84.71279944756411
 31
0.0
  0
LINE
  5
EE
330
1F
100
AcDbEntity
  8
Sichtbare_Kanten_TC_020513_DIN_
  6
Continuous
 62
     7
100
AcDbLine
 10
507.1783611423729
 20
84.71279944756411
 30
0.0
 11
497.178361142373
 21
84.71279944756411
 31
0.0
  0
LINE
  5
EF
330
1F
100
AcDbEntity
  8
Sichtbare_Kanten_TC_020513_DIN_
  6
Continuous
 62
     7
100
AcDbLine
 10
516.178361142373
 20
84.71279944756411
 30
0.0
 11
507.1783611423729
 21
84.71279944756411
 31
0.0
  0
LINE
  5
F0
330
1F
100
AcDbEntity
  8
Sichtbare_Kanten_TC_020513_DIN_
  6
Continuous
 62
     7
100
AcDbLine
 10
507.1783611423729
 20
80.71279944756411
 30
0.0
 11
507.1783611423729
 21
84.71279944756411
 31
0.0
  0
LINE
  5
F1
330
1F
100
AcDbEntity
  8
Sichtbare_Kanten_TC_020513_DIN_
  6
Continuous
 62
     7
100
AcDbLine
 10
381.1783611423728
 20
80.71279944756411
 30
0.0
 11
381.1783611423728
 21
84.71279944756411
 31
0.0
  0
LINE
  5
F2
330
1F
100
AcDbEntity
  8
Sichtbare_Kanten_TC_020513_DIN_
  6
Continuous
 62
     7
100
AcDbLine
 10
372.1783611423728
 20
80.71279944756411
 30
0.0
 11
372.1783611423728
 21
84.71279944756411
 31
0.0
  0
LINE
  5
F3
330
1F
100
AcDbEntity
  8
Sichtbare_Kanten_TC_020513_DIN_
  6
Continuous
 62
     7
100
AcDbLine
 10
498.428361142373
 20
139.712799447564
 30
0.0
 11
491.062694334367
 21
139.712799447564
 31
0.0
  0
LINE
  5
F4
330
1F
100
AcDbEntity
  8
Sichtbare_Kanten_TC_020513_DIN_
  6
Continuous
 62
     7
100
AcDbLine
 10
475.353805822036
 20
139.712799447564
 30
0.0
 11
413.0029164627096
 21
139.712799447564
 31
0.0
  0
LINE
  5
F5
330
1F
100
AcDbEntity
  8
Sichtbare_Kanten_TC_020513_DIN_
  6
Continuous
 62
     7
100
AcDbLine
 10
397.294027950379
 20
139.712799447564
 30
0.0
 11
389.9283611423728
 21
139.712799447564
 31
0.0
  0
LINE
  5
F6
330
1F
100
AcDbEntity
  8
Sichtbare_Kanten_TC_020513_DIN_
  6
Continuous
 62
     7
100
AcDbLine
 10
504.4283611423729
 20
84.71279944756411
 30
0.0
 11
504.4283611423729
 21
130.712799447564
 31
0.0
  0
LINE
  5
F7
330
1F
100
AcDbEntity
  8
Sichtbare_Kanten_TC_020513_DIN_
  6
Continuous
 62
     7
100
AcDbLine
 10
504.4283611423729
 20
137.712799447564
 30
0.0
 11
504.4283611423729
 21
139.712799447564
 31
0.0
  0
LINE
  5
F8
330
1F
100
AcDbEntity
  8
Sichtbare_Kanten_TC_020513_DIN_
  6
Continuous
 62
     7
100
AcDbLine
 10
383.9283611423728
 20
84.71279944756411
 30
0.0
 11
383.9283611423728
 21
130.712799447564
 31
0.0
  0
LINE
  5
F9
330
1F
100
AcDbEntity
  8
Sichtbare_Kanten_TC_020513_DIN_
  6
Continuous
 62
     7
100
AcDbLine
 10
383.9283611423728
 20
137.712799447564
 30
0.0
 11
383.9283611423728
 21
139.712799447564
 31
0.0
  0
LINE
  5
FA
330
1F
100
AcDbEntity
  8
Sichtbare_Kanten_TC_020513_DIN_
  6
Continuous
 62
     7
100
AcDbLine
 10
383.9283611423728
 20
139.712799447564
 30
0.0
 11
389.9283611423728
 21
139.712799447564
 31
0.0
  0
LINE
  5
FB
330
1F
100
AcDbEntity
  8
Sichtbare_Kanten_TC_020513_DIN_
  6
Continuous
 62
     7
100
AcDbLine
 10
498.428361142373
 20
139.712799447564
 30
0.0
 11
504.4283611423729
 21
139.712799447564
 31
0.0
  0
LINE
  5
FC
330
1F
100
AcDbEntity
  8
Sichtbare_Kanten_TC_020513_DIN_
  6
Continuous
 62
     7
100
AcDbLine
 10
372.1783611423729
 20
100.1027994475641
 30
0.0
 11
372.1783611423728
 21
84.71279944756411
 31
0.0
  0
LINE
  5
FD
330
1F
100
AcDbEntity
  8
Sichtbare_Kanten_TC_020513_DIN_
  6
Continuous
 62
     7
100
AcDbLine
 10
372.1783611423729
 20
100.1027994475641
 30
0.0
 11
372.1783611423729
 21
115.242799447564
 31
0.0
  0
LINE
  5
FE
330
1F
100
AcDbEntity
  8
Sichtbare_Kanten_TC_020513_DIN_
  6
Continuous
 62
     7
100
AcDbLine
 10
383.9283611423728
 20
115.242799447564
 30
0.0
 11
372.1783611423729
 21
115.242799447564
 31
0.0
  0
LINE
  5
FF
330
1F
100
AcDbEntity
  8
Sichtbare_Kanten_TC_020513_DIN_
  6
Continuous
 62
     7
100
AcDbLine
 10
516.178361142373
 20
100.1027994475641
 30
0.0
 11
516.178361142373
 21
115.242799447564
 31
0.0
  0
LINE
  5
100
330
1F
100
AcDbEntity
  8
Sichtbare_Kanten_TC_020513_DIN_
  6
Continuous
 62
     7
100
AcDbLine
 10
516.178361142373
 20
100.1027994475641
 30
0.0
 11
516.178361142373
 21
84.71279944756411
 31
0.0
  0
LINE
  5
101
330
1F
100
AcDbEntity
  8
Sichtbare_Kanten_TC_020513_DIN_
  6
Continuous
 62
     7
100
AcDbLine
 10
516.178361142373
 20
115.242799447564
 30
0.0
 11
504.4283611423729
 21
115.242799447564
 31
0.0
  0
LINE
  5
102
330
1F
100
AcDbEntity
  8
Sichtbare_Kanten_TC_020513_DIN_
  6
Continuous
 62
     7
100
AcDbLine
 10
384.1283611423729
 20
143.712799447564
 30
0.0
 11
384.1283611423729
 21
139.712799447564
 31
0.0
  0
LINE
  5
103
330
1F
100
AcDbEntity
  8
Sichtbare_Kanten_TC_020513_DIN_
  6
Continuous
 62
     7
100
AcDbLine
 10
389.9283611423728
 20
143.712799447564
 30
0.0
 11
384.1283611423729
 21
143.712799447564
 31
0.0
  0
LINE
  5
104
330
1F
100
AcDbEntity
  8
Sichtbare_Kanten_TC_020513_DIN_
  6
Continuous
 62
     7
100
AcDbLine
 10
389.9283611423728
 20
143.712799447564
 30
0.0
 11
392.5411941801942
 21
143.712799447564
 31
0.0
  0
LINE
  5
105
330
1F
100
AcDbEntity
  8
Sichtbare_Kanten_TC_020513_DIN_
  6
Continuous
 62
     7
100
AcDbLine
 10
403.6783611423728
 20
143.712799447564
 30
0.0
 11
484.678361142373
 21
143.712799447564
 31
0.0
  0
LINE
  5
106
330
1F
100
AcDbEntity
  8
Sichtbare_Kanten_TC_020513_DIN_
  6
Continuous
 62
     7
100
AcDbLine
 10
495.815528104551
 20
143.712799447564
 30
0.0
 11
498.428361142373
 21
143.712799447564
 31
0.0
  0
LINE
  5
107
330
1F
100
AcDbEntity
  8
Sichtbare_Kanten_TC_020513_DIN_
  6
Continuous
 62
     7
100
AcDbLine
 10
504.228361142373
 20
143.712799447564
 30
0.0
 11
504.228361142373
 21
139.712799447564
 31
0.0
  0
LINE
  5
108
330
1F
100
AcDbEntity
  8
Sichtbare_Kanten_TC_020513_DIN_
  6
Continuous
 62
     7
100
AcDbLine
 10
504.228361142373
 20
143.712799447564
 30
0.0
 11
498.428361142373
 21
143.712799447564
 31
0.0
  0
LINE
  5
109
330
1F
100
AcDbEntity
  8
Sichtbare_Kanten_TC_020513_DIN_
  6
Continuous
 62
     7
100
AcDbLine
 10
513.3672500312621
 20
124.496162144973
 30
0.0
 11
516.4783611423729
 21
124.496162144973
 31
0.0
  0
LINE
  5
10A
330
1F
100
AcDbEntity
  8
Sichtbare_Kanten_TC_020513_DIN_
  6
Continuous
 62
     7
100
AcDbLine
 10
513.3672500312621
 20
124.496162144973
 30
0.0
 11
512.9783611423729
 21
124.496162144973
 31
0.0
  0
LINE
  5
10B
330
1F
100
AcDbEntity
  8
Sichtbare_Kanten_TC_020513_DIN_
  6
Continuous
 62
     7
100
AcDbLine
 10
505.978361142373
 20
124.496162144973
 30
0.0
 11
505.940706227365
 21
124.496162144973
 31
0.0
  0
LINE
  5
10C
330
1F
100
AcDbEntity
  8
Sichtbare_Kanten_TC_020513_DIN_
  6
Continuous
 62
     7
100
AcDbLine
 10
516.4783611423729
 20
124.496162144973
 30
0.0
 11
516.4783611423729
 21
125.896162144973
 31
0.0
  0
LINE
  5
10D
330
1F
100
AcDbEntity
  8
Sichtbare_Kanten_TC_020513_DIN_
  6
Continuous
 62
     7
100
AcDbLine
 10
505.978361142373
 20
125.896162144973
 30
0.0
 11
505.940706227365
 21
125.896162144973
 31
0.0
  0
LINE
  5
10E
330
1F
100
AcDbEntity
  8
Sichtbare_Kanten_TC_020513_DIN_
  6
Continuous
 62
     7
100
AcDbLine
 10
513.3672500312621
 20
125.896162144973
 30
0.0
 11
512.9783611423729
 21
125.896162144973
 31
0.0
  0
LINE
  5
10F
330
1F
100
AcDbEntity
  8
Sichtbare_Kanten_TC_020513_DIN_
  6
Continuous
 62
     7
100
AcDbLine
 10
513.3672500312621
 20
125.896162144973
 30
0.0
 11
516.4783611423729
 21
125.896162144973
 31
0.0
  0
LINE
  5
110
330
1F
100
AcDbEntity
  8
Sichtbare_Kanten_TC_020513_DIN_
  6
Continuous
 62
     7
100
AcDbLine
 10
512.9783611423729
 20
127.296162144973
 30
0.0
 11
512.9783611423729
 21
129.712799447564
 31
0.0
  0
LINE
  5
111
330
1F
100
AcDbEntity
  8
Sichtbare_Kanten_TC_020513_DIN_
  6
Continuous
 62
     7
100
AcDbLine
 10
504.978361142373
 20
137.712799447564
 30
0.0
 11
491.678361142373
 21
137.712799447564
 31
0.0
  0
LINE
  5
112
330
1F
100
AcDbEntity
  8
Sichtbare_Kanten_TC_020513_DIN_
  6
Continuous
 62
     7
100
AcDbLine
 10
474.678361142373
 20
136.712799447564
 30
0.0
 11
474.678361142373
 21
123.212799447564
 31
0.0
  0
LINE
  5
113
330
1F
100
AcDbEntity
  8
Sichtbare_Kanten_TC_020513_DIN_
  6
Continuous
 62
     7
100
AcDbLine
 10
493.678361142373
 20
130.712799447564
 30
0.0
 11
504.978361142373
 21
130.712799447564
 31
0.0
  0
LINE
  5
114
330
1F
100
AcDbEntity
  8
Sichtbare_Kanten_TC_020513_DIN_
  6
Continuous
 62
     7
100
AcDbLine
 10
505.978361142373
 20
129.712799447564
 30
0.0
 11
505.978361142373
 21
127.296162144973
 31
0.0
  0
LINE
  5
115
330
1F
100
AcDbEntity
  8
Sichtbare_Kanten_TC_020513_DIN_
  6
Continuous
 62
     7
100
AcDbLine
 10
505.8407062273649
 20
123.558507229966
 30
0.0
 11
504.440706227365
 21
123.558507229966
 31
0.0
  0
LINE
  5
116
330
1F
100
AcDbEntity
  8
Sichtbare_Kanten_TC_020513_DIN_
  6
Continuous
 62
     7
100
AcDbLine
 10
504.440706227365
 20
124.396162144973
 30
0.0
 11
504.440706227365
 21
123.558507229966
 31
0.0
  0
LINE
  5
117
330
1F
100
AcDbEntity
  8
Sichtbare_Kanten_TC_020513_DIN_
  6
Continuous
 62
     7
100
AcDbLine
 10
505.8407062273649
 20
124.396162144973
 30
0.0
 11
505.8407062273649
 21
123.558507229966
 31
0.0
  0
LINE
  5
118
330
1F
100
AcDbEntity
  8
Sichtbare_Kanten_TC_020513_DIN_
  6
Continuous
 62
     7
100
AcDbLine
 10
512.9783611423729
 20
124.496162144973
 30
0.0
 11
505.978361142373
 21
124.496162144973
 31
0.0
  0
LINE
  5
119
330
1F
100
AcDbEntity
  8
Sichtbare_Kanten_TC_020513_DIN_
  6
Continuous
 62
     7
100
AcDbLine
 10
505.978361142373
 20
124.496162144973
 30
0.0
 11
505.978361142373
 21
127.296162144973
 31
0.0
  0
LINE
  5
11A
330
1F
100
AcDbEntity
  8
Sichtbare_Kanten_TC_020513_DIN_
  6
Continuous
 62
     7
100
AcDbLine
 10
512.9783611423729
 20
127.296162144973
 30
0.0
 11
512.9783611423729
 21
124.496162144973
 31
0.0
  0
LINE
  5
11B
330
1F
100
AcDbEntity
  8
Sichtbare_Kanten_TC_020513_DIN_
  6
Continuous
 62
     7
100
AcDbLine
 10
382.3783611423729
 20
124.496162144973
 30
0.0
 11
382.4160160573803
 21
124.496162144973
 31
0.0
  0
LINE
  5
11C
330
1F
100
AcDbEntity
  8
Sichtbare_Kanten_TC_020513_DIN_
  6
Continuous
 62
     7
100
AcDbLine
 10
374.989472253484
 20
124.496162144973
 30
0.0
 11
375.3783611423728
 21
124.496162144973
 31
0.0
  0
LINE
  5
11D
330
1F
100
AcDbEntity
  8
Sichtbare_Kanten_TC_020513_DIN_
  6
Continuous
 62
     7
100
AcDbLine
 10
374.989472253484
 20
124.496162144973
 30
0.0
 11
371.8783611423729
 21
124.496162144973
 31
0.0
  0
LINE
  5
11E
330
1F
100
AcDbEntity
  8
Sichtbare_Kanten_TC_020513_DIN_
  6
Continuous
 62
     7
100
AcDbLine
 10
382.5160160573803
 20
123.558507229966
 30
0.0
 11
383.9160160573803
 21
123.558507229966
 31
0.0
  0
LINE
  5
11F
330
1F
100
AcDbEntity
  8
Sichtbare_Kanten_TC_020513_DIN_
  6
Continuous
 62
     7
100
AcDbLine
 10
383.9160160573803
 20
124.396162144973
 30
0.0
 11
383.9160160573803
 21
123.558507229966
 31
0.0
  0
LINE
  5
120
330
1F
100
AcDbEntity
  8
Sichtbare_Kanten_TC_020513_DIN_
  6
Continuous
 62
     7
100
AcDbLine
 10
382.5160160573803
 20
124.396162144973
 30
0.0
 11
382.5160160573803
 21
123.558507229966
 31
0.0
  0
LINE
  5
121
330
1F
100
AcDbEntity
  8
Sichtbare_Kanten_TC_020513_DIN_
  6
Continuous
 62
     7
100
AcDbLine
 10
382.3783611423729
 20
125.896162144973
 30
0.0
 11
382.4160160573803
 21
125.896162144973
 31
0.0
  0
LINE
  5
122
330
1F
100
AcDbEntity
  8
Sichtbare_Kanten_TC_020513_DIN_
  6
Continuous
 62
     7
100
AcDbLine
 10
374.989472253484
 20
125.896162144973
 30
0.0
 11
371.8783611423729
 21
125.896162144973
 31
0.0
  0
LINE
  5
123
330
1F
100
AcDbEntity
  8
Sichtbare_Kanten_TC_020513_DIN_
  6
Continuous
 62
     7
100
AcDbLine
 10
374.989472253484
 20
125.896162144973
 30
0.0
 11
375.3783611423728
 21
125.896162144973
 31
0.0
  0
LINE
  5
124
330
1F
100
AcDbEntity
  8
Sichtbare_Kanten_TC_020513_DIN_
  6
Continuous
 62
     7
100
AcDbLine
 10
382.3783611423728
 20
129.712799447564
 30
0.0
 11
382.3783611423729
 21
127.296162144973
 31
0.0
  0
LINE
  5
125
330
1F
100
AcDbEntity
  8
Sichtbare_Kanten_TC_020513_DIN_
  6
Continuous
 62
     7
100
AcDbLine
 10
394.6783611423728
 20
130.712799447564
 30
0.0
 11
383.3783611423728
 21
130.712799447564
 31
0.0
  0
LINE
  5
126
330
1F
100
AcDbEntity
  8
Sichtbare_Kanten_TC_020513_DIN_
  6
Continuous
 62
     7
100
AcDbLine
 10
413.6783611423728
 20
136.712799447564
 30
0.0
 11
413.6783611423729
 21
123.212799447564
 31
0.0
  0
LINE
  5
127
330
1F
100
AcDbEntity
  8
Sichtbare_Kanten_TC_020513_DIN_
  6
Continuous
 62
     7
100
AcDbLine
 10
383.3783611423728
 20
137.712799447564
 30
0.0
 11
396.6783611423728
 21
137.712799447564
 31
0.0
  0
LINE
  5
128
330
1F
100
AcDbEntity
  8
Sichtbare_Kanten_TC_020513_DIN_
  6
Continuous
 62
     7
100
AcDbLine
 10
375.3783611423729
 20
127.296162144973
 30
0.0
 11
375.3783611423728
 21
129.712799447564
 31
0.0
  0
LINE
  5
129
330
1F
100
AcDbEntity
  8
Sichtbare_Kanten_TC_020513_DIN_
  6
Continuous
 62
     7
100
AcDbLine
 10
371.8783611423729
 20
124.496162144973
 30
0.0
 11
371.8783611423729
 21
125.896162144973
 31
0.0
  0
LINE
  5
12A
330
1F
100
AcDbEntity
  8
Sichtbare_Kanten_TC_020513_DIN_
  6
Continuous
 62
     7
100
AcDbLine
 10
384.6529156159438
 20
156.556260716354
 30
0.0
 11
381.3117238397821
 21
154.509041031756
 31
0.0
  0
LINE
  5
12B
330
1F
100
AcDbEntity
  8
Sichtbare_Kanten_TC_020513_DIN_
  6
Continuous
 62
     7
100
AcDbLine
 10
411.1783611423728
 20
126.575144532557
 30
0.0
 11
411.1783611423728
 21
126.61418726643
 31
0.0
  0
LINE
  5
12C
330
1F
100
AcDbEntity
  8
Sichtbare_Kanten_TC_020513_DIN_
  6
Continuous
 62
     7
100
AcDbLine
 10
403.6783611423728
 20
143.037354767901
 30
0.0
 11
403.6783611423728
 21
144.712799447564
 31
0.0
  0
LINE
  5
12D
330
1F
100
AcDbEntity
  8
Sichtbare_Kanten_TC_020513_DIN_
  6
Continuous
 62
     7
100
AcDbLine
 10
403.6783611423728
 20
144.712799447564
 30
0.0
 11
401.4494832060366
 21
147.927933978263
 31
0.0
  0
LINE
  5
12E
330
1F
100
AcDbEntity
  8
Sichtbare_Kanten_TC_020513_DIN_
  6
Continuous
 62
     7
100
AcDbLine
 10
401.3913591867032
 20
148.386009714578
 30
0.0
 11
402.4570041951968
 21
151.271691850692
 31
0.0
  0
LINE
  5
12F
330
1F
100
AcDbEntity
  8
Sichtbare_Kanten_TC_020513_DIN_
  6
Continuous
 62
     7
100
AcDbLine
 10
410.938642823201
 20
161.712799447564
 30
0.0
 11
402.938642823201
 21
161.712799447564
 31
0.0
  0
LINE
  5
130
330
1F
100
AcDbEntity
  8
Sichtbare_Kanten_TC_020513_DIN_
  6
Continuous
 62
     7
100
AcDbLine
 10
381.3117238397821
 20
144.073784782559
 30
0.0
 11
382.6783611423728
 21
144.073784782559
 31
0.0
  0
LINE
  5
131
330
1F
100
AcDbEntity
  8
Sichtbare_Kanten_TC_020513_DIN_
  6
Continuous
 62
     7
100
AcDbLine
 10
383.4626606685585
 20
144.453402438174
 30
0.0
 11
386.28621137928
 21
148.022990619757
 31
0.0
  0
LINE
  5
132
330
1F
100
AcDbEntity
  8
Sichtbare_Kanten_TC_020513_DIN_
  6
Continuous
 62
     7
100
AcDbLine
 10
386.9885523145655
 20
148.104949210657
 30
0.0
 11
397.1023092038
 21
140.104949210657
 31
0.0
  0
LINE
  5
133
330
1F
100
AcDbEntity
  8
Sichtbare_Kanten_TC_020513_DIN_
  6
Continuous
 62
     7
100
AcDbLine
 10
397.2902153806532
 20
139.756377318938
 30
0.0
 11
397.4173157359788
 21
138.303613609867
 31
0.0
  0
LINE
  5
134
330
1F
100
AcDbEntity
  8
Sichtbare_Kanten_TC_020513_DIN_
  6
Continuous
 62
     7
100
AcDbLine
 10
408.2422204807383
 20
126.712799447564
 30
0.0
 11
408.2783611423728
 21
126.712799447564
 31
0.0
  0
LINE
  5
135
330
1F
100
AcDbEntity
  8
Sichtbare_Kanten_TC_020513_DIN_
  6
Continuous
 62
     7
100
AcDbLine
 10
408.2783611423728
 20
126.712799447564
 30
0.0
 11
408.2783611423728
 21
126.575144532557
 31
0.0
  0
LINE
  5
136
330
1F
100
AcDbEntity
  8
Sichtbare_Kanten_TC_020513_DIN_
  6
Continuous
 62
     7
100
AcDbLine
 10
379.9117238397821
 20
143.888489543835
 30
0.0
 11
379.9117238397821
 21
142.513607754062
 31
0.0
  0
LINE
  5
137
330
1F
100
AcDbEntity
  8
Sichtbare_Kanten_TC_020513_DIN_
  6
Continuous
 62
     7
100
AcDbLine
 10
378.5117238397821
 20
142.513607754062
 30
0.0
 11
378.5117238397821
 21
143.888489543835
 31
0.0
  0
LINE
  5
138
330
1F
100
AcDbEntity
  8
Sichtbare_Kanten_TC_020513_DIN_
  6
Continuous
 62
     7
100
AcDbLine
 10
379.9117238397821
 20
144.073784782559
 30
0.0
 11
379.9117238397821
 21
143.888489543835
 31
0.0
  0
LINE
  5
139
330
1F
100
AcDbEntity
  8
Sichtbare_Kanten_TC_020513_DIN_
  6
Continuous
 62
     7
100
AcDbLine
 10
378.5117238397821
 20
143.888489543835
 30
0.0
 11
378.5117238397821
 21
144.073784782559
 31
0.0
  0
LINE
  5
13A
330
1F
100
AcDbEntity
  8
Sichtbare_Kanten_TC_020513_DIN_
  6
Continuous
 62
     7
100
AcDbLine
 10
372.1774484469863
 20
155.29042208515
 30
0.0
 11
370.6950865371914
 21
155.29042208515
 31
0.0
  0
LINE
  5
13B
330
1F
100
AcDbEntity
  8
Sichtbare_Kanten_TC_020513_DIN_
  6
Continuous
 62
     7
100
AcDbLine
 10
370.6950865371914
 20
153.89042208515
 30
0.0
 11
370.6950865371914
 21
155.29042208515
 31
0.0
  0
LINE
  5
13C
330
1F
100
AcDbEntity
  8
Sichtbare_Kanten_TC_020513_DIN_
  6
Continuous
 62
     7
100
AcDbLine
 10
370.6950865371914
 20
153.89042208515
 30
0.0
 11
372.1774484469863
 21
153.89042208515
 31
0.0
  0
LINE
  5
13D
330
1F
100
AcDbEntity
  8
Sichtbare_Kanten_TC_020513_DIN_
  6
Continuous
 62
     7
100
AcDbLine
 10
372.1774484469863
 20
155.29042208515
 30
0.0
 11
377.1117238397821
 21
155.29042208515
 31
0.0
  0
LINE
  5
13E
330
1F
100
AcDbEntity
  8
Sichtbare_Kanten_TC_020513_DIN_
  6
Continuous
 62
     7
100
AcDbLine
 10
377.1117238397821
 20
153.89042208515
 30
0.0
 11
372.1774484469863
 21
153.89042208515
 31
0.0
  0
LINE
  5
13F
330
1F
100
AcDbEntity
  8
Sichtbare_Kanten_TC_020513_DIN_
  6
Continuous
 62
     7
100
AcDbLine
 10
408.2783611423728
 20
126.475144532557
 30
0.0
 11
408.2783611423728
 21
125.075144532557
 31
0.0
  0
LINE
  5
140
330
1F
100
AcDbEntity
  8
Sichtbare_Kanten_TC_020513_DIN_
  6
Continuous
 62
     7
100
AcDbLine
 10
408.2783611423728
 20
125.075144532557
 30
0.0
 11
408.7783611423728
 21
125.075144532557
 31
0.0
  0
LINE
  5
141
330
1F
100
AcDbEntity
  8
Sichtbare_Kanten_TC_020513_DIN_
  6
Continuous
 62
     7
100
AcDbLine
 10
408.7783611423728
 20
126.475144532557
 30
0.0
 11
408.2783611423728
 21
126.475144532557
 31
0.0
  0
LINE
  5
142
330
1F
100
AcDbEntity
  8
Sichtbare_Kanten_TC_020513_DIN_
  6
Continuous
 62
     7
100
AcDbLine
 10
410.6783611423728
 20
125.075144532557
 30
0.0
 11
408.7783611423728
 21
125.075144532557
 31
0.0
  0
LINE
  5
143
330
1F
100
AcDbEntity
  8
Sichtbare_Kanten_TC_020513_DIN_
  6
Continuous
 62
     7
100
AcDbLine
 10
408.7783611423728
 20
126.475144532557
 30
0.0
 11
410.6783611423728
 21
126.475144532557
 31
0.0
  0
LINE
  5
144
330
1F
100
AcDbEntity
  8
Sichtbare_Kanten_TC_020513_DIN_
  6
Continuous
 62
     7
100
AcDbLine
 10
410.6783611423728
 20
125.075144532557
 30
0.0
 11
411.1783611423728
 21
125.075144532557
 31
0.0
  0
LINE
  5
145
330
1F
100
AcDbEntity
  8
Sichtbare_Kanten_TC_020513_DIN_
  6
Continuous
 62
     7
100
AcDbLine
 10
411.1783611423728
 20
126.475144532557
 30
0.0
 11
411.1783611423728
 21
125.075144532557
 31
0.0
  0
LINE
  5
146
330
1F
100
AcDbEntity
  8
Sichtbare_Kanten_TC_020513_DIN_
  6
Continuous
 62
     7
100
AcDbLine
 10
411.1783611423728
 20
126.475144532557
 30
0.0
 11
410.6783611423728
 21
126.475144532557
 31
0.0
  0
LINE
  5
147
330
1F
100
AcDbEntity
  8
Sichtbare_Kanten_TC_020513_DIN_
  6
Continuous
 62
     7
100
AcDbLine
 10
376.4543167692492
 20
134.478429308885
 30
0.0
 11
377.0807899828373
 21
135.821905450939
 31
0.0
  0
LINE
  5
148
330
1F
100
AcDbEntity
  8
Sichtbare_Kanten_TC_020513_DIN_
  6
Continuous
 62
     7
100
AcDbLine
 10
375.811959080986
 20
136.413571017376
 30
0.0
 11
375.1854858673978
 21
135.070094875322
 31
0.0
  0
LINE
  5
149
330
1F
100
AcDbEntity
  8
Sichtbare_Kanten_TC_020513_DIN_
  6
Continuous
 62
     7
100
AcDbLine
 10
375.1854858673978
 20
135.070094875322
 30
0.0
 11
376.4543167692492
 21
134.478429308885
 31
0.0
  0
LINE
  5
14A
330
1F
100
AcDbEntity
  8
Sichtbare_Kanten_TC_020513_DIN_
  6
Continuous
 62
     7
100
AcDbLine
 10
375.811959080986
 20
136.413571017376
 30
0.0
 11
378.3805547416334
 21
141.921942187625
 31
0.0
  0
LINE
  5
14B
330
1F
100
AcDbEntity
  8
Sichtbare_Kanten_TC_020513_DIN_
  6
Continuous
 62
     7
100
AcDbLine
 10
379.6493856434847
 20
141.330276621188
 30
0.0
 11
377.0807899828373
 21
135.821905450939
 31
0.0
  0
LINE
  5
14C
330
1F
100
AcDbEntity
  8
Sichtbare_Kanten_TC_020513_DIN_
  6
Continuous
 62
     7
100
AcDbLine
 10
382.3783611423729
 20
124.496162144973
 30
0.0
 11
375.3783611423728
 21
124.496162144973
 31
0.0
  0
LINE
  5
14D
330
1F
100
AcDbEntity
  8
Sichtbare_Kanten_TC_020513_DIN_
  6
Continuous
 62
     7
100
AcDbLine
 10
375.3783611423728
 20
124.496162144973
 30
0.0
 11
375.3783611423729
 21
127.296162144973
 31
0.0
  0
LINE
  5
14E
330
1F
100
AcDbEntity
  8
Sichtbare_Kanten_TC_020513_DIN_
  6
Continuous
 62
     7
100
AcDbLine
 10
382.3783611423729
 20
127.296162144973
 30
0.0
 11
382.3783611423729
 21
124.496162144973
 31
0.0
  0
LINE
  5
14F
330
1F
100
AcDbEntity
  8
Sichtbare_Kanten_TC_020513_DIN_
  6
Continuous
 62
     7
100
AcDbLine
 10
509.417878454351
 20
141.661607710071
 30
0.0
 11
508.707336641261
 21
141.330276621188
 31
0.0
  0
LINE
  5
150
330
1F
100
AcDbEntity
  8
Sichtbare_Kanten_TC_020513_DIN_
  6
Continuous
 62
     7
100
AcDbLine
 10
509.9761675431121
 20
141.921942187625
 30
0.0
 11
509.417878454351
 21
141.661607710071
 31
0.0
  0
LINE
  5
151
330
1F
100
AcDbEntity
  8
Sichtbare_Kanten_TC_020513_DIN_
  6
Continuous
 62
     7
100
AcDbLine
 10
509.228994592027
 20
142.513607754062
 30
0.0
 11
509.844998444964
 21
142.513607754062
 31
0.0
  0
LINE
  5
152
330
1F
100
AcDbEntity
  8
Sichtbare_Kanten_TC_020513_DIN_
  6
Continuous
 62
     7
100
AcDbLine
 10
508.4449984449641
 20
142.513607754062
 30
0.0
 11
509.228994592027
 21
142.513607754062
 31
0.0
  0
LINE
  5
153
330
1F
100
AcDbEntity
  8
Sichtbare_Kanten_TC_020513_DIN_
  6
Continuous
 62
     7
100
AcDbLine
 10
477.178361142373
 20
126.575144532557
 30
0.0
 11
477.178361142373
 21
126.475144532557
 31
0.0
  0
LINE
  5
154
330
1F
100
AcDbEntity
  8
Sichtbare_Kanten_TC_020513_DIN_
  6
Continuous
 62
     7
100
AcDbLine
 10
480.078361142373
 20
126.475144532557
 30
0.0
 11
480.078361142373
 21
126.575144532557
 31
0.0
  0
LINE
  5
155
330
1F
100
AcDbEntity
  8
Sichtbare_Kanten_TC_020513_DIN_
  6
Continuous
 62
     7
100
AcDbLine
 10
480.078361142373
 20
126.712799447564
 30
0.0
 11
480.078361142373
 21
126.575144532557
 31
0.0
  0
LINE
  5
156
330
1F
100
AcDbEntity
  8
Sichtbare_Kanten_TC_020513_DIN_
  6
Continuous
 62
     7
100
AcDbLine
 10
480.114501804007
 20
126.712799447564
 30
0.0
 11
480.078361142373
 21
126.712799447564
 31
0.0
  0
LINE
  5
157
330
1F
100
AcDbEntity
  8
Sichtbare_Kanten_TC_020513_DIN_
  6
Continuous
 62
     7
100
AcDbLine
 10
491.066506904092
 20
139.756377318938
 30
0.0
 11
490.939406548767
 21
138.303613609867
 31
0.0
  0
LINE
  5
158
330
1F
100
AcDbEntity
  8
Sichtbare_Kanten_TC_020513_DIN_
  6
Continuous
 62
     7
100
AcDbLine
 10
501.36816997018
 20
148.104949210657
 30
0.0
 11
491.254413080946
 21
140.104949210657
 31
0.0
  0
LINE
  5
159
330
1F
100
AcDbEntity
  8
Sichtbare_Kanten_TC_020513_DIN_
  6
Continuous
 62
     7
100
AcDbLine
 10
504.894061616187
 20
144.453402438174
 30
0.0
 11
502.0705109054661
 21
148.022990619757
 31
0.0
  0
LINE
  5
15A
330
1F
100
AcDbEntity
  8
Sichtbare_Kanten_TC_020513_DIN_
  6
Continuous
 62
     7
100
AcDbLine
 10
507.0449984449639
 20
144.073784782559
 30
0.0
 11
505.6783611423729
 21
144.073784782559
 31
0.0
  0
LINE
  5
15B
330
1F
100
AcDbEntity
  8
Sichtbare_Kanten_TC_020513_DIN_
  6
Continuous
 62
     7
100
AcDbLine
 10
503.703806668802
 20
156.556260716354
 30
0.0
 11
507.0449984449639
 21
154.509041031756
 31
0.0
  0
LINE
  5
15C
330
1F
100
AcDbEntity
  8
Sichtbare_Kanten_TC_020513_DIN_
  6
Continuous
 62
     7
100
AcDbLine
 10
477.418079461545
 20
161.712799447564
 30
0.0
 11
485.418079461545
 21
161.712799447564
 31
0.0
  0
LINE
  5
15D
330
1F
100
AcDbEntity
  8
Sichtbare_Kanten_TC_020513_DIN_
  6
Continuous
 62
     7
100
AcDbLine
 10
486.965363098043
 20
148.386009714578
 30
0.0
 11
485.899718089549
 21
151.271691850692
 31
0.0
  0
LINE
  5
15E
330
1F
100
AcDbEntity
  8
Sichtbare_Kanten_TC_020513_DIN_
  6
Continuous
 62
     7
100
AcDbLine
 10
484.678361142373
 20
144.712799447564
 30
0.0
 11
486.907239078709
 21
147.927933978263
 31
0.0
  0
LINE
  5
15F
330
1F
100
AcDbEntity
  8
Sichtbare_Kanten_TC_020513_DIN_
  6
Continuous
 62
     7
100
AcDbLine
 10
484.678361142373
 20
143.037354767901
 30
0.0
 11
484.678361142373
 21
144.712799447564
 31
0.0
  0
LINE
  5
160
330
1F
100
AcDbEntity
  8
Sichtbare_Kanten_TC_020513_DIN_
  6
Continuous
 62
     7
100
AcDbLine
 10
477.178361142373
 20
126.575144532557
 30
0.0
 11
477.178361142373
 21
126.61418726643
 31
0.0
  0
LINE
  5
161
330
1F
100
AcDbEntity
  8
Sichtbare_Kanten_TC_020513_DIN_
  6
Continuous
 62
     7
100
AcDbLine
 10
509.844998444964
 20
142.513607754062
 30
0.0
 11
509.844998444964
 21
143.888489543835
 31
0.0
  0
LINE
  5
162
330
1F
100
AcDbEntity
  8
Sichtbare_Kanten_TC_020513_DIN_
  6
Continuous
 62
     7
100
AcDbLine
 10
508.4449984449641
 20
143.888489543835
 30
0.0
 11
508.4449984449641
 21
142.513607754062
 31
0.0
  0
LINE
  5
163
330
1F
100
AcDbEntity
  8
Sichtbare_Kanten_TC_020513_DIN_
  6
Continuous
 62
     7
100
AcDbLine
 10
508.4449984449641
 20
144.073784782559
 30
0.0
 11
508.4449984449641
 21
143.888489543835
 31
0.0
  0
LINE
  5
164
330
1F
100
AcDbEntity
  8
Sichtbare_Kanten_TC_020513_DIN_
  6
Continuous
 62
     7
100
AcDbLine
 10
509.844998444964
 20
143.888489543835
 30
0.0
 11
509.844998444964
 21
144.073784782559
 31
0.0
  0
LINE
  5
165
330
1F
100
AcDbEntity
  8
Sichtbare_Kanten_TC_020513_DIN_
  6
Continuous
 62
     7
100
AcDbLine
 10
516.179273837759
 20
155.29042208515
 30
0.0
 11
517.6616357475541
 21
155.29042208515
 31
0.0
  0
LINE
  5
166
330
1F
100
AcDbEntity
  8
Sichtbare_Kanten_TC_020513_DIN_
  6
Continuous
 62
     7
100
AcDbLine
 10
517.6616357475541
 20
153.89042208515
 30
0.0
 11
516.179273837759
 21
153.89042208515
 31
0.0
  0
LINE
  5
167
330
1F
100
AcDbEntity
  8
Sichtbare_Kanten_TC_020513_DIN_
  6
Continuous
 62
     7
100
AcDbLine
 10
517.6616357475541
 20
153.89042208515
 30
0.0
 11
517.6616357475541
 21
155.29042208515
 31
0.0
  0
LINE
  5
168
330
1F
100
AcDbEntity
  8
Sichtbare_Kanten_TC_020513_DIN_
  6
Continuous
 62
     7
100
AcDbLine
 10
511.2449984449641
 20
153.89042208515
 30
0.0
 11
516.179273837759
 21
153.89042208515
 31
0.0
  0
LINE
  5
169
330
1F
100
AcDbEntity
  8
Sichtbare_Kanten_TC_020513_DIN_
  6
Continuous
 62
     7
100
AcDbLine
 10
516.179273837759
 20
155.29042208515
 30
0.0
 11
511.2449984449641
 21
155.29042208515
 31
0.0
  0
LINE
  5
16A
330
1F
100
AcDbEntity
  8
Sichtbare_Kanten_TC_020513_DIN_
  6
Continuous
 62
     7
100
AcDbLine
 10
480.078361142373
 20
125.075144532557
 30
0.0
 11
479.578361142373
 21
125.075144532557
 31
0.0
  0
LINE
  5
16B
330
1F
100
AcDbEntity
  8
Sichtbare_Kanten_TC_020513_DIN_
  6
Continuous
 62
     7
100
AcDbLine
 10
480.078361142373
 20
126.475144532557
 30
0.0
 11
480.078361142373
 21
125.075144532557
 31
0.0
  0
LINE
  5
16C
330
1F
100
AcDbEntity
  8
Sichtbare_Kanten_TC_020513_DIN_
  6
Continuous
 62
     7
100
AcDbLine
 10
479.578361142373
 20
126.475144532557
 30
0.0
 11
480.078361142373
 21
126.475144532557
 31
0.0
  0
LINE
  5
16D
330
1F
100
AcDbEntity
  8
Sichtbare_Kanten_TC_020513_DIN_
  6
Continuous
 62
     7
100
AcDbLine
 10
477.678361142373
 20
125.075144532557
 30
0.0
 11
479.578361142373
 21
125.075144532557
 31
0.0
  0
LINE
  5
16E
330
1F
100
AcDbEntity
  8
Sichtbare_Kanten_TC_020513_DIN_
  6
Continuous
 62
     7
100
AcDbLine
 10
479.578361142373
 20
126.475144532557
 30
0.0
 11
477.678361142373
 21
126.475144532557
 31
0.0
  0
LINE
  5
16F
330
1F
100
AcDbEntity
  8
Sichtbare_Kanten_TC_020513_DIN_
  6
Continuous
 62
     7
100
AcDbLine
 10
477.678361142373
 20
125.075144532557
 30
0.0
 11
477.178361142373
 21
125.075144532557
 31
0.0
  0
LINE
  5
170
330
1F
100
AcDbEntity
  8
Sichtbare_Kanten_TC_020513_DIN_
  6
Continuous
 62
     7
100
AcDbLine
 10
477.178361142373
 20
126.475144532557
 30
0.0
 11
477.678361142373
 21
126.475144532557
 31
0.0
  0
LINE
  5
171
330
1F
100
AcDbEntity
  8
Sichtbare_Kanten_TC_020513_DIN_
  6
Continuous
 62
     7
100
AcDbLine
 10
477.178361142373
 20
126.475144532557
 30
0.0
 11
477.178361142373
 21
125.075144532557
 31
0.0
  0
LINE
  5
172
330
1F
100
AcDbEntity
  8
Sichtbare_Kanten_TC_020513_DIN_
  6
Continuous
 62
     7
100
AcDbLine
 10
511.9024055154972
 20
134.478429308885
 30
0.0
 11
511.275932301908
 21
135.821905450939
 31
0.0
  0
LINE
  5
173
330
1F
100
AcDbEntity
  8
Sichtbare_Kanten_TC_020513_DIN_
  6
Continuous
 62
     7
100
AcDbLine
 10
513.1712364173479
 20
135.070094875322
 30
0.0
 11
511.9024055154972
 21
134.478429308885
 31
0.0
  0
LINE
  5
174
330
1F
100
AcDbEntity
  8
Sichtbare_Kanten_TC_020513_DIN_
  6
Continuous
 62
     7
100
AcDbLine
 10
512.5447632037601
 20
136.413571017376
 30
0.0
 11
513.1712364173479
 21
135.070094875322
 31
0.0
  0
LINE
  5
175
330
1F
100
AcDbEntity
  8
Sichtbare_Kanten_TC_020513_DIN_
  6
Continuous
 62
     7
100
AcDbLine
 10
508.707336641261
 20
141.330276621188
 30
0.0
 11
511.275932301908
 21
135.821905450939
 31
0.0
  0
LINE
  5
176
330
1F
100
AcDbEntity
  8
Sichtbare_Kanten_TC_020513_DIN_
  6
Continuous
 62
     7
100
AcDbLine
 10
512.5447632037601
 20
136.413571017376
 30
0.0
 11
509.9761675431121
 21
141.921942187625
 31
0.0
  0
LINE
  5
177
330
1F
100
AcDbEntity
  8
Sichtbare_Kanten_TC_020513_DIN_
  6
Continuous
 62
     7
100
AcDbLine
 10
511.2449984449641
 20
154.506423215432
 30
0.0
 11
511.2449984449641
 21
153.89042208515
 31
0.0
  0
LINE
  5
178
330
1F
100
AcDbEntity
  8
Sichtbare_Kanten_TC_020513_DIN_
  6
Continuous
 62
     7
100
AcDbLine
 10
511.2449984449641
 20
155.29042208515
 30
0.0
 11
511.2449984449641
 21
154.506423215432
 31
0.0
  0
LINE
  5
179
330
1F
100
AcDbEntity
  8
Sichtbare_Kanten_TC_020513_DIN_
  6
Continuous
 62
     7
100
AcDbLine
 10
508.5374970925491
 20
154.073784782559
 30
0.0
 11
509.4851473793181
 21
154.073784782559
 31
0.0
  0
LINE
  5
17A
330
1F
100
AcDbEntity
  8
Sichtbare_Kanten_TC_020513_DIN_
  6
Continuous
 62
     7
100
AcDbLine
 10
509.844998444964
 20
144.073784782559
 30
0.0
 11
507.0449984449639
 21
144.073784782559
 31
0.0
  0
LINE
  5
17B
330
1F
100
AcDbEntity
  8
Sichtbare_Kanten_TC_020513_DIN_
  6
Continuous
 62
     7
100
AcDbLine
 10
509.844998444964
 20
153.397994902329
 30
0.0
 11
509.844998444964
 21
144.073784782559
 31
0.0
  0
LINE
  5
17C
330
1F
100
AcDbEntity
  8
Sichtbare_Kanten_TC_020513_DIN_
  6
Continuous
 62
     7
100
AcDbLine
 10
378.9388438303949
 20
141.661607710071
 30
0.0
 11
378.3805547416334
 21
141.921942187625
 31
0.0
  0
LINE
  5
17D
330
1F
100
AcDbEntity
  8
Sichtbare_Kanten_TC_020513_DIN_
  6
Continuous
 62
     7
100
AcDbLine
 10
379.6493856434847
 20
141.330276621188
 30
0.0
 11
378.9388438303949
 21
141.661607710071
 31
0.0
  0
LINE
  5
17E
330
1F
100
AcDbEntity
  8
Sichtbare_Kanten_TC_020513_DIN_
  6
Continuous
 62
     7
100
AcDbLine
 10
379.1277276927183
 20
142.513607754062
 30
0.0
 11
379.9117238397821
 21
142.513607754062
 31
0.0
  0
LINE
  5
17F
330
1F
100
AcDbEntity
  8
Sichtbare_Kanten_TC_020513_DIN_
  6
Continuous
 62
     7
100
AcDbLine
 10
378.5117238397821
 20
142.513607754062
 30
0.0
 11
379.1277276927183
 21
142.513607754062
 31
0.0
  0
LINE
  5
180
330
1F
100
AcDbEntity
  8
Sichtbare_Kanten_TC_020513_DIN_
  6
Continuous
 62
     7
100
AcDbLine
 10
408.2783611423728
 20
126.575144532557
 30
0.0
 11
408.2783611423728
 21
126.475144532557
 31
0.0
  0
LINE
  5
181
330
1F
100
AcDbEntity
  8
Sichtbare_Kanten_TC_020513_DIN_
  6
Continuous
 62
     7
100
AcDbLine
 10
411.1783611423728
 20
126.475144532557
 30
0.0
 11
411.1783611423728
 21
126.575144532557
 31
0.0
  0
LINE
  5
182
330
1F
100
AcDbEntity
  8
Sichtbare_Kanten_TC_020513_DIN_
  6
Continuous
 62
     7
100
AcDbLine
 10
377.1117238397821
 20
154.506423215431
 30
0.0
 11
377.1117238397821
 21
155.29042208515
 31
0.0
  0
LINE
  5
183
330
1F
100
AcDbEntity
  8
Sichtbare_Kanten_TC_020513_DIN_
  6
Continuous
 62
     7
100
AcDbLine
 10
377.1117238397821
 20
153.89042208515
 30
0.0
 11
377.1117238397821
 21
154.506423215431
 31
0.0
  0
LINE
  5
184
330
1F
100
AcDbEntity
  8
Sichtbare_Kanten_TC_020513_DIN_
  6
Continuous
 62
     7
100
AcDbLine
 10
378.8715749054273
 20
154.073784782559
 30
0.0
 11
379.8192251921965
 21
154.073784782559
 31
0.0
  0
LINE
  5
185
330
1F
100
AcDbEntity
  8
Sichtbare_Kanten_TC_020513_DIN_
  6
Continuous
 62
     7
100
AcDbLine
 10
378.5117238397821
 20
144.073784782559
 30
0.0
 11
378.5117238397821
 21
153.397994902329
 31
0.0
  0
LINE
  5
186
330
1F
100
AcDbEntity
  8
Sichtbare_Kanten_TC_020513_DIN_
  6
Continuous
 62
     7
100
AcDbLine
 10
381.3117238397821
 20
144.073784782559
 30
0.0
 11
378.5117238397821
 21
144.073784782559
 31
0.0
  0
LINE
  5
187
330
1F
100
AcDbEntity
  8
Sichtbare_Kanten_TC_020513_DIN_
  6
Continuous
 62
     7
100
AcDbLine
 10
601.9599266518121
 20
80.71279944756411
 30
0.0
 11
544.9599266518121
 21
80.71279944756411
 31
0.0
  0
LINE
  5
188
330
1F
100
AcDbEntity
  8
Sichtbare_Kanten_TC_020513_DIN_
  6
Continuous
 62
     7
100
AcDbLine
 10
558.319926651812
 20
84.71279944756411
 30
0.0
 11
544.9599266518121
 21
84.71279944756411
 31
0.0
  0
LINE
  5
189
330
1F
100
AcDbEntity
  8
Sichtbare_Kanten_TC_020513_DIN_
  6
Continuous
 62
     7
100
AcDbLine
 10
601.9599266518121
 20
84.71279944756411
 30
0.0
 11
588.599926651812
 21
84.71279944756411
 31
0.0
  0
LINE
  5
18A
330
1F
100
AcDbEntity
  8
Sichtbare_Kanten_TC_020513_DIN_
  6
Continuous
 62
     7
100
AcDbLine
 10
544.9599266518121
 20
80.71279944756411
 30
0.0
 11
544.9599266518121
 21
84.71279944756411
 31
0.0
  0
LINE
  5
18B
330
1F
100
AcDbEntity
  8
Sichtbare_Kanten_TC_020513_DIN_
  6
Continuous
 62
     7
100
AcDbLine
 10
601.9599266518121
 20
80.71279944756411
 30
0.0
 11
601.9599266518121
 21
84.71279944756411
 31
0.0
  0
LINE
  5
18C
330
1F
100
AcDbEntity
  8
Sichtbare_Kanten_TC_020513_DIN_
  6
Continuous
 62
     7
100
AcDbLine
 10
595.7099266518171
 20
84.71279944756411
 30
0.0
 11
595.7099266518171
 21
124.496162144973
 31
0.0
  0
LINE
  5
18D
330
1F
100
AcDbEntity
  8
Sichtbare_Kanten_TC_020513_DIN_
  6
Continuous
 62
     7
100
AcDbLine
 10
595.7099266518171
 20
125.896162144973
 30
0.0
 11
595.7099266518171
 21
139.712799447564
 31
0.0
  0
LINE
  5
18E
330
1F
100
AcDbEntity
  8
Sichtbare_Kanten_TC_020513_DIN_
  6
Continuous
 62
     7
100
AcDbLine
 10
551.2099266518171
 20
139.712799447564
 30
0.0
 11
557.209926651816
 21
139.712799447564
 31
0.0
  0
LINE
  5
18F
330
1F
100
AcDbEntity
  8
Sichtbare_Kanten_TC_020513_DIN_
  6
Continuous
 62
     7
100
AcDbLine
 10
551.2099266518171
 20
84.71279944756411
 30
0.0
 11
551.2099266518171
 21
124.496162144973
 31
0.0
  0
LINE
  5
190
330
1F
100
AcDbEntity
  8
Sichtbare_Kanten_TC_020513_DIN_
  6
Continuous
 62
     7
100
AcDbLine
 10
551.2099266518171
 20
125.896162144973
 30
0.0
 11
551.2099266518171
 21
139.712799447564
 31
0.0
  0
LINE
  5
191
330
1F
100
AcDbEntity
  8
Sichtbare_Kanten_TC_020513_DIN_
  6
Continuous
 62
     7
100
AcDbLine
 10
589.709926651816
 20
139.712799447564
 30
0.0
 11
588.669503138819
 21
139.712799447564
 31
0.0
  0
LINE
  5
192
330
1F
100
AcDbEntity
  8
Sichtbare_Kanten_TC_020513_DIN_
  6
Continuous
 62
     7
100
AcDbLine
 10
558.2503501648121
 20
139.712799447564
 30
0.0
 11
557.209926651816
 21
139.712799447564
 31
0.0
  0
LINE
  5
193
330
1F
100
AcDbEntity
  8
Sichtbare_Kanten_TC_020513_DIN_
  6
Continuous
 62
     7
100
AcDbLine
 10
589.709926651816
 20
139.712799447564
 30
0.0
 11
595.7099266518171
 21
139.712799447564
 31
0.0
  0
LINE
  5
194
330
1F
100
AcDbEntity
  8
Sichtbare_Kanten_TC_020513_DIN_
  6
Continuous
 62
     7
100
AcDbLine
 10
588.599926651812
 20
100.1027994475641
 30
0.0
 11
588.599926651812
 21
84.71279944756411
 31
0.0
  0
LINE
  5
195
330
1F
100
AcDbEntity
  8
Sichtbare_Kanten_TC_020513_DIN_
  6
Continuous
 62
     7
100
AcDbLine
 10
558.319926651812
 20
84.71279944756411
 30
0.0
 11
558.319926651812
 21
100.1027994475641
 31
0.0
  0
LINE
  5
196
330
1F
100
AcDbEntity
  8
Sichtbare_Kanten_TC_020513_DIN_
  6
Continuous
 62
     7
100
AcDbLine
 10
551.4099266518181
 20
143.712799447564
 30
0.0
 11
551.4099266518181
 21
139.712799447564
 31
0.0
  0
LINE
  5
197
330
1F
100
AcDbEntity
  8
Sichtbare_Kanten_TC_020513_DIN_
  6
Continuous
 62
     7
100
AcDbLine
 10
557.209926651816
 20
143.712799447564
 30
0.0
 11
551.4099266518181
 21
143.712799447564
 31
0.0
  0
LINE
  5
198
330
1F
100
AcDbEntity
  8
Sichtbare_Kanten_TC_020513_DIN_
  6
Continuous
 62
     7
100
AcDbLine
 10
557.209926651816
 20
143.712799447564
 30
0.0
 11
557.2151214303931
 21
143.712799447564
 31
0.0
  0
LINE
  5
199
330
1F
100
AcDbEntity
  8
Sichtbare_Kanten_TC_020513_DIN_
  6
Continuous
 62
     7
100
AcDbLine
 10
589.7047318732391
 20
143.712799447564
 30
0.0
 11
589.709926651816
 21
143.712799447564
 31
0.0
  0
LINE
  5
19A
330
1F
100
AcDbEntity
  8
Sichtbare_Kanten_TC_020513_DIN_
  6
Continuous
 62
     7
100
AcDbLine
 10
595.509926651818
 20
143.712799447564
 30
0.0
 11
595.509926651818
 21
139.712799447564
 31
0.0
  0
LINE
  5
19B
330
1F
100
AcDbEntity
  8
Sichtbare_Kanten_TC_020513_DIN_
  6
Continuous
 62
     7
100
AcDbLine
 10
595.509926651818
 20
143.712799447564
 30
0.0
 11
589.709926651816
 21
143.712799447564
 31
0.0
  0
LINE
  5
19C
330
1F
100
AcDbEntity
  8
Sichtbare_Kanten_TC_020513_DIN_
  6
Continuous
 62
     7
100
AcDbLine
 10
595.809926651822
 20
134.212799447564
 30
0.0
 11
595.809926651822
 21
139.212799447564
 31
0.0
  0
LINE
  5
19D
330
1F
100
AcDbEntity
  8
Sichtbare_Kanten_TC_020513_DIN_
  6
Continuous
 62
     7
100
AcDbLine
 10
600.559926651822
 20
132.712799447564
 30
0.0
 11
600.559926651822
 21
140.712799447564
 31
0.0
  0
LINE
  5
19E
330
1F
100
AcDbEntity
  8
Sichtbare_Kanten_TC_020513_DIN_
  6
Continuous
 62
     7
100
AcDbLine
 10
601.959926651823
 20
132.712799447564
 30
0.0
 11
601.959926651823
 21
140.712799447564
 31
0.0
  0
LINE
  5
19F
330
1F
100
AcDbEntity
  8
Sichtbare_Kanten_TC_020513_DIN_
  6
Continuous
 62
     7
100
AcDbLine
 10
551.1099266518231
 20
134.212799447564
 30
0.0
 11
551.1099266518231
 21
139.212799447564
 31
0.0
  0
LINE
  5
1A0
330
1F
100
AcDbEntity
  8
Sichtbare_Kanten_TC_020513_DIN_
  6
Continuous
 62
     7
100
AcDbLine
 10
546.3599266518231
 20
132.712799447564
 30
0.0
 11
546.3599266518231
 21
140.712799447564
 31
0.0
  0
LINE
  5
1A1
330
1F
100
AcDbEntity
  8
Sichtbare_Kanten_TC_020513_DIN_
  6
Continuous
 62
     7
100
AcDbLine
 10
544.959926651823
 20
132.712799447564
 30
0.0
 11
544.959926651823
 21
140.712799447564
 31
0.0
  0
LINE
  5
1A2
330
1F
100
AcDbEntity
  8
Sichtbare_Kanten_TC_020513_DIN_
  6
Continuous
 62
     7
100
AcDbLine
 10
595.7099266518221
 20
138.212799447564
 30
0.0
 11
595.809926651822
 21
138.212799447564
 31
0.0
  0
LINE
  5
1A3
330
1F
100
AcDbEntity
  8
Sichtbare_Kanten_TC_020513_DIN_
  6
Continuous
 62
     7
100
AcDbLine
 10
595.7099266518221
 20
135.212799447564
 30
0.0
 11
595.809926651822
 21
135.212799447564
 31
0.0
  0
LINE
  5
1A4
330
1F
100
AcDbEntity
  8
Sichtbare_Kanten_TC_020513_DIN_
  6
Continuous
 62
     7
100
AcDbLine
 10
599.959926651823
 20
139.212799447564
 30
0.0
 11
600.559926651822
 21
139.212799447564
 31
0.0
  0
LINE
  5
1A5
330
1F
100
AcDbEntity
  8
Sichtbare_Kanten_TC_020513_DIN_
  6
Continuous
 62
     7
100
AcDbLine
 10
599.959926651823
 20
134.212799447564
 30
0.0
 11
600.559926651822
 21
134.212799447564
 31
0.0
  0
LINE
  5
1A6
330
1F
100
AcDbEntity
  8
Sichtbare_Kanten_TC_020513_DIN_
  6
Continuous
 62
     7
100
AcDbLine
 10
595.809926651822
 20
139.212799447564
 30
0.0
 11
595.8599266518231
 21
139.212799447564
 31
0.0
  0
LINE
  5
1A7
330
1F
100
AcDbEntity
  8
Sichtbare_Kanten_TC_020513_DIN_
  6
Continuous
 62
     7
100
AcDbLine
 10
597.259926651823
 20
139.212799447564
 30
0.0
 11
598.559926651822
 21
139.212799447564
 31
0.0
  0
LINE
  5
1A8
330
1F
100
AcDbEntity
  8
Sichtbare_Kanten_TC_020513_DIN_
  6
Continuous
 62
     7
100
AcDbLine
 10
595.809926651822
 20
134.212799447564
 30
0.0
 11
595.8599266518231
 21
134.212799447564
 31
0.0
  0
LINE
  5
1A9
330
1F
100
AcDbEntity
  8
Sichtbare_Kanten_TC_020513_DIN_
  6
Continuous
 62
     7
100
AcDbLine
 10
597.259926651823
 20
134.212799447564
 30
0.0
 11
598.559926651822
 21
134.212799447564
 31
0.0
  0
LINE
  5
1AA
330
1F
100
AcDbEntity
  8
Sichtbare_Kanten_TC_020513_DIN_
  6
Continuous
 62
     7
100
AcDbLine
 10
551.1099266518231
 20
138.212799447564
 30
0.0
 11
551.209926651823
 21
138.212799447564
 31
0.0
  0
LINE
  5
1AB
330
1F
100
AcDbEntity
  8
Sichtbare_Kanten_TC_020513_DIN_
  6
Continuous
 62
     7
100
AcDbLine
 10
551.1099266518231
 20
135.212799447564
 30
0.0
 11
551.209926651823
 21
135.212799447564
 31
0.0
  0
LINE
  5
1AC
330
1F
100
AcDbEntity
  8
Sichtbare_Kanten_TC_020513_DIN_
  6
Continuous
 62
     7
100
AcDbLine
 10
546.3599266518231
 20
139.212799447564
 30
0.0
 11
546.9599266518221
 21
139.212799447564
 31
0.0
  0
LINE
  5
1AD
330
1F
100
AcDbEntity
  8
Sichtbare_Kanten_TC_020513_DIN_
  6
Continuous
 62
     7
100
AcDbLine
 10
546.3599266518231
 20
134.212799447564
 30
0.0
 11
546.9599266518221
 21
134.212799447564
 31
0.0
  0
LINE
  5
1AE
330
1F
100
AcDbEntity
  8
Sichtbare_Kanten_TC_020513_DIN_
  6
Continuous
 62
     7
100
AcDbLine
 10
548.3599266518231
 20
139.212799447564
 30
0.0
 11
549.6599266518231
 21
139.212799447564
 31
0.0
  0
LINE
  5
1AF
330
1F
100
AcDbEntity
  8
Sichtbare_Kanten_TC_020513_DIN_
  6
Continuous
 62
     7
100
AcDbLine
 10
551.059926651822
 20
139.212799447564
 30
0.0
 11
551.1099266518231
 21
139.212799447564
 31
0.0
  0
LINE
  5
1B0
330
1F
100
AcDbEntity
  8
Sichtbare_Kanten_TC_020513_DIN_
  6
Continuous
 62
     7
100
AcDbLine
 10
548.3599266518231
 20
134.212799447564
 30
0.0
 11
549.6599266518231
 21
134.212799447564
 31
0.0
  0
LINE
  5
1B1
330
1F
100
AcDbEntity
  8
Sichtbare_Kanten_TC_020513_DIN_
  6
Continuous
 62
     7
100
AcDbLine
 10
551.059926651822
 20
134.212799447564
 30
0.0
 11
551.1099266518231
 21
134.212799447564
 31
0.0
  0
LINE
  5
1B2
330
1F
100
AcDbEntity
  8
Sichtbare_Kanten_TC_020513_DIN_
  6
Continuous
 62
     7
100
AcDbLine
 10
559.676563954406
 20
124.496162144973
 30
0.0
 11
559.676563954406
 21
124.396162144973
 31
0.0
  0
LINE
  5
1B3
330
1F
100
AcDbEntity
  8
Sichtbare_Kanten_TC_020513_DIN_
  6
Continuous
 62
     7
100
AcDbLine
 10
563.676563954406
 20
124.396162144973
 30
0.0
 11
563.676563954406
 21
124.496162144973
 31
0.0
  0
LINE
  5
1B4
330
1F
100
AcDbEntity
  8
Sichtbare_Kanten_TC_020513_DIN_
  6
Continuous
 62
     7
100
AcDbLine
 10
583.2432893492239
 20
124.496162144973
 30
0.0
 11
583.2432893492239
 21
124.396162144973
 31
0.0
  0
LINE
  5
1B5
330
1F
100
AcDbEntity
  8
Sichtbare_Kanten_TC_020513_DIN_
  6
Continuous
 62
     7
100
AcDbLine
 10
587.243289349225
 20
124.396162144973
 30
0.0
 11
587.2432893492239
 21
124.496162144973
 31
0.0
  0
LINE
  5
1B6
330
1F
100
AcDbEntity
  8
Sichtbare_Kanten_TC_020513_DIN_
  6
Continuous
 62
     7
100
AcDbLine
 10
548.3599266518199
 20
124.871291014377
 30
0.0
 11
548.3599266518231
 21
121.978859022958
 31
0.0
  0
LINE
  5
1B7
330
1F
100
AcDbEntity
  8
Sichtbare_Kanten_TC_020513_DIN_
  6
Continuous
 62
     7
100
AcDbLine
 10
548.3599266518231
 20
143.712799447564
 30
0.0
 11
548.359926651822
 21
143.004775161143
 31
0.0
  0
LINE
  5
1B8
330
1F
100
AcDbEntity
  8
Sichtbare_Kanten_TC_020513_DIN_
  6
Continuous
 62
     7
100
AcDbLine
 10
548.359926651822
 20
143.004775161143
 30
0.0
 11
548.3599266518199
 21
137.891211697472
 31
0.0
  0
LINE
  5
1B9
330
1F
100
AcDbEntity
  8
Sichtbare_Kanten_TC_020513_DIN_
  6
Continuous
 62
     7
100
AcDbLine
 10
548.359926651819
 20
137.712799447564
 30
0.0
 11
548.3599266518199
 21
137.891211697472
 31
0.0
  0
LINE
  5
1BA
330
1F
100
AcDbEntity
  8
Sichtbare_Kanten_TC_020513_DIN_
  6
Continuous
 62
     7
100
AcDbLine
 10
548.359926651819
 20
137.712799447564
 30
0.0
 11
548.3599266518131
 21
129.712799447564
 31
0.0
  0
LINE
  5
1BB
330
1F
100
AcDbEntity
  8
Sichtbare_Kanten_TC_020513_DIN_
  6
Continuous
 62
     7
100
AcDbLine
 10
548.3599266518131
 20
127.296162144973
 30
0.0
 11
548.3599266518131
 21
129.712799447564
 31
0.0
  0
LINE
  5
1BC
330
1F
100
AcDbEntity
  8
Sichtbare_Kanten_TC_020513_DIN_
  6
Continuous
 62
     7
100
AcDbLine
 10
546.959926651813
 20
127.296162144973
 30
0.0
 11
546.959926651813
 21
129.712799447564
 31
0.0
  0
LINE
  5
1BD
330
1F
100
AcDbEntity
  8
Sichtbare_Kanten_TC_020513_DIN_
  6
Continuous
 62
     7
100
AcDbLine
 10
546.959926651816
 20
137.712799447564
 30
0.0
 11
546.959926651813
 21
129.712799447564
 31
0.0
  0
LINE
  5
1BE
330
1F
100
AcDbEntity
  8
Sichtbare_Kanten_TC_020513_DIN_
  6
Continuous
 62
     7
100
AcDbLine
 10
546.959926651816
 20
137.712799447564
 30
0.0
 11
546.9599266518201
 21
137.891211697472
 31
0.0
  0
LINE
  5
1BF
330
1F
100
AcDbEntity
  8
Sichtbare_Kanten_TC_020513_DIN_
  6
Continuous
 62
     7
100
AcDbLine
 10
546.9599266518221
 20
143.004775161143
 30
0.0
 11
546.9599266518201
 21
137.891211697472
 31
0.0
  0
LINE
  5
1C0
330
1F
100
AcDbEntity
  8
Sichtbare_Kanten_TC_020513_DIN_
  6
Continuous
 62
     7
100
AcDbLine
 10
546.9599266518221
 20
143.712799447564
 30
0.0
 11
546.9599266518221
 21
143.004775161143
 31
0.0
  0
LINE
  5
1C1
330
1F
100
AcDbEntity
  8
Sichtbare_Kanten_TC_020513_DIN_
  6
Continuous
 62
     7
100
AcDbLine
 10
546.959926651813
 20
127.296162144973
 30
0.0
 11
546.959926651823
 21
121.978859022958
 31
0.0
  0
LINE
  5
1C2
330
1F
100
AcDbEntity
  8
Sichtbare_Kanten_TC_020513_DIN_
  6
Continuous
 62
     7
100
AcDbLine
 10
546.959926651816
 20
137.712799447564
 30
0.0
 11
548.359926651819
 21
137.712799447564
 31
0.0
  0
LINE
  5
1C3
330
1F
100
AcDbEntity
  8
Sichtbare_Kanten_TC_020513_DIN_
  6
Continuous
 62
     7
100
AcDbLine
 10
553.676563954404
 20
124.496162144973
 30
0.0
 11
549.759926651813
 21
124.496162144973
 31
0.0
  0
LINE
  5
1C4
330
1F
100
AcDbEntity
  8
Sichtbare_Kanten_TC_020513_DIN_
  6
Continuous
 62
     7
100
AcDbLine
 10
553.676563954404
 20
125.896162144973
 30
0.0
 11
549.759926651813
 21
125.896162144973
 31
0.0
  0
LINE
  5
1C5
330
1F
100
AcDbEntity
  8
Sichtbare_Kanten_TC_020513_DIN_
  6
Continuous
 62
     7
100
AcDbLine
 10
554.468108779336
 20
125.896162144973
 30
0.0
 11
553.676563954404
 21
125.896162144973
 31
0.0
  0
LINE
  5
1C6
330
1F
100
AcDbEntity
  8
Sichtbare_Kanten_TC_020513_DIN_
  6
Continuous
 62
     7
100
AcDbLine
 10
554.468108779336
 20
124.496162144973
 30
0.0
 11
553.676563954404
 21
124.496162144973
 31
0.0
  0
LINE
  5
1C7
330
1F
100
AcDbEntity
  8
Sichtbare_Kanten_TC_020513_DIN_
  6
Continuous
 62
     7
100
AcDbLine
 10
554.468108779336
 20
125.896162144973
 30
0.0
 11
560.80046737879
 21
125.896162144973
 31
0.0
  0
LINE
  5
1C8
330
1F
100
AcDbEntity
  8
Sichtbare_Kanten_TC_020513_DIN_
  6
Continuous
 62
     7
100
AcDbLine
 10
554.468108779336
 20
124.496162144973
 30
0.0
 11
560.80046737879
 21
124.496162144973
 31
0.0
  0
LINE
  5
1C9
330
1F
100
AcDbEntity
  8
Sichtbare_Kanten_TC_020513_DIN_
  6
Continuous
 62
     7
100
AcDbLine
 10
559.676563954406
 20
123.558507229966
 30
0.0
 11
563.176563954406
 21
123.558507229966
 31
0.0
  0
LINE
  5
1CA
330
1F
100
AcDbEntity
  8
Sichtbare_Kanten_TC_020513_DIN_
  6
Continuous
 62
     7
100
AcDbLine
 10
563.676563954406
 20
124.058507229966
 30
0.0
 11
563.676563954406
 21
124.396162144973
 31
0.0
  0
LINE
  5
1CB
330
1F
100
AcDbEntity
  8
Sichtbare_Kanten_TC_020513_DIN_
  6
Continuous
 62
     7
100
AcDbLine
 10
559.676563954406
 20
124.396162144973
 30
0.0
 11
559.676563954406
 21
123.558507229966
 31
0.0
  0
LINE
  5
1CC
330
1F
100
AcDbEntity
  8
Sichtbare_Kanten_TC_020513_DIN_
  6
Continuous
 62
     7
100
AcDbLine
 10
593.2432893492221
 20
124.496162144973
 30
0.0
 11
597.1599266518131
 21
124.496162144973
 31
0.0
  0
LINE
  5
1CD
330
1F
100
AcDbEntity
  8
Sichtbare_Kanten_TC_020513_DIN_
  6
Continuous
 62
     7
100
AcDbLine
 10
592.45174452429
 20
124.496162144973
 30
0.0
 11
593.2432893492221
 21
124.496162144973
 31
0.0
  0
LINE
  5
1CE
330
1F
100
AcDbEntity
  8
Sichtbare_Kanten_TC_020513_DIN_
  6
Continuous
 62
     7
100
AcDbLine
 10
592.45174452429
 20
124.496162144973
 30
0.0
 11
586.119385924834
 21
124.496162144973
 31
0.0
  0
LINE
  5
1CF
330
1F
100
AcDbEntity
  8
Sichtbare_Kanten_TC_020513_DIN_
  6
Continuous
 62
     7
100
AcDbLine
 10
586.119385924834
 20
124.496162144973
 30
0.0
 11
560.80046737879
 21
124.496162144973
 31
0.0
  0
LINE
  5
1D0
330
1F
100
AcDbEntity
  8
Sichtbare_Kanten_TC_020513_DIN_
  6
Continuous
 62
     7
100
AcDbLine
 10
587.2432893492239
 20
123.558507229966
 30
0.0
 11
583.743289349225
 21
123.558507229966
 31
0.0
  0
LINE
  5
1D1
330
1F
100
AcDbEntity
  8
Sichtbare_Kanten_TC_020513_DIN_
  6
Continuous
 62
     7
100
AcDbLine
 10
583.243289349225
 20
124.058507229966
 30
0.0
 11
583.2432893492239
 21
124.396162144973
 31
0.0
  0
LINE
  5
1D2
330
1F
100
AcDbEntity
  8
Sichtbare_Kanten_TC_020513_DIN_
  6
Continuous
 62
     7
100
AcDbLine
 10
587.243289349225
 20
124.396162144973
 30
0.0
 11
587.2432893492239
 21
123.558507229966
 31
0.0
  0
LINE
  5
1D3
330
1F
100
AcDbEntity
  8
Sichtbare_Kanten_TC_020513_DIN_
  6
Continuous
 62
     7
100
AcDbLine
 10
586.119385924834
 20
125.896162144973
 30
0.0
 11
560.80046737879
 21
125.896162144973
 31
0.0
  0
LINE
  5
1D4
330
1F
100
AcDbEntity
  8
Sichtbare_Kanten_TC_020513_DIN_
  6
Continuous
 62
     7
100
AcDbLine
 10
592.45174452429
 20
125.896162144973
 30
0.0
 11
586.119385924834
 21
125.896162144973
 31
0.0
  0
LINE
  5
1D5
330
1F
100
AcDbEntity
  8
Sichtbare_Kanten_TC_020513_DIN_
  6
Continuous
 62
     7
100
AcDbLine
 10
592.45174452429
 20
125.896162144973
 30
0.0
 11
593.2432893492221
 21
125.896162144973
 31
0.0
  0
LINE
  5
1D6
330
1F
100
AcDbEntity
  8
Sichtbare_Kanten_TC_020513_DIN_
  6
Continuous
 62
     7
100
AcDbLine
 10
593.2432893492221
 20
125.896162144973
 30
0.0
 11
597.1599266518131
 21
125.896162144973
 31
0.0
  0
LINE
  5
1D7
330
1F
100
AcDbEntity
  8
Sichtbare_Kanten_TC_020513_DIN_
  6
Continuous
 62
     7
100
AcDbLine
 10
598.5599266518129
 20
127.296162144973
 30
0.0
 11
598.5599266518129
 21
129.712799447564
 31
0.0
  0
LINE
  5
1D8
330
1F
100
AcDbEntity
  8
Sichtbare_Kanten_TC_020513_DIN_
  6
Continuous
 62
     7
100
AcDbLine
 10
598.5599266518161
 20
137.712799447564
 30
0.0
 11
598.5599266518129
 21
129.712799447564
 31
0.0
  0
LINE
  5
1D9
330
1F
100
AcDbEntity
  8
Sichtbare_Kanten_TC_020513_DIN_
  6
Continuous
 62
     7
100
AcDbLine
 10
598.5599266518161
 20
137.712799447564
 30
0.0
 11
598.55992665182
 21
137.891211697472
 31
0.0
  0
LINE
  5
1DA
330
1F
100
AcDbEntity
  8
Sichtbare_Kanten_TC_020513_DIN_
  6
Continuous
 62
     7
100
AcDbLine
 10
598.559926651822
 20
143.004775161143
 30
0.0
 11
598.55992665182
 21
137.891211697472
 31
0.0
  0
LINE
  5
1DB
330
1F
100
AcDbEntity
  8
Sichtbare_Kanten_TC_020513_DIN_
  6
Continuous
 62
     7
100
AcDbLine
 10
598.559926651822
 20
143.712799447564
 30
0.0
 11
598.559926651822
 21
143.004775161143
 31
0.0
  0
LINE
  5
1DC
330
1F
100
AcDbEntity
  8
Sichtbare_Kanten_TC_020513_DIN_
  6
Continuous
 62
     7
100
AcDbLine
 10
598.55992665182
 20
124.871291014377
 30
0.0
 11
598.5599266518229
 21
121.978859022958
 31
0.0
  0
LINE
  5
1DD
330
1F
100
AcDbEntity
  8
Sichtbare_Kanten_TC_020513_DIN_
  6
Continuous
 62
     7
100
AcDbLine
 10
599.9599266518201
 20
127.296162144973
 30
0.0
 11
599.959926651823
 21
121.978859022958
 31
0.0
  0
LINE
  5
1DE
330
1F
100
AcDbEntity
  8
Sichtbare_Kanten_TC_020513_DIN_
  6
Continuous
 62
     7
100
AcDbLine
 10
599.959926651823
 20
143.712799447564
 30
0.0
 11
599.9599266518221
 21
143.004775161143
 31
0.0
  0
LINE
  5
1DF
330
1F
100
AcDbEntity
  8
Sichtbare_Kanten_TC_020513_DIN_
  6
Continuous
 62
     7
100
AcDbLine
 10
599.9599266518221
 20
143.004775161143
 30
0.0
 11
599.9599266518201
 21
137.891211697472
 31
0.0
  0
LINE
  5
1E0
330
1F
100
AcDbEntity
  8
Sichtbare_Kanten_TC_020513_DIN_
  6
Continuous
 62
     7
100
AcDbLine
 10
599.9599266518201
 20
137.712799447564
 30
0.0
 11
599.9599266518201
 21
137.891211697472
 31
0.0
  0
LINE
  5
1E1
330
1F
100
AcDbEntity
  8
Sichtbare_Kanten_TC_020513_DIN_
  6
Continuous
 62
     7
100
AcDbLine
 10
599.9599266518201
 20
137.712799447564
 30
0.0
 11
599.959926651813
 21
129.712799447564
 31
0.0
  0
LINE
  5
1E2
330
1F
100
AcDbEntity
  8
Sichtbare_Kanten_TC_020513_DIN_
  6
Continuous
 62
     7
100
AcDbLine
 10
599.9599266518201
 20
127.296162144973
 30
0.0
 11
599.959926651813
 21
129.712799447564
 31
0.0
  0
LINE
  5
1E3
330
1F
100
AcDbEntity
  8
Sichtbare_Kanten_TC_020513_DIN_
  6
Continuous
 62
     7
100
AcDbLine
 10
599.9599266518201
 20
137.712799447564
 30
0.0
 11
598.5599266518161
 21
137.712799447564
 31
0.0
  0
LINE
  5
1E4
330
1F
100
AcDbEntity
  8
Sichtbare_Kanten_TC_020513_DIN_
  6
Continuous
 62
     7
100
AcDbLine
 10
595.8599266518231
 20
126.575144532557
 30
0.0
 11
595.8599266518231
 21
126.712799447564
 31
0.0
  0
LINE
  5
1E5
330
1F
100
AcDbEntity
  8
Sichtbare_Kanten_TC_020513_DIN_
  6
Continuous
 62
     7
100
AcDbLine
 10
595.8599266518199
 20
134.928397762835
 30
0.0
 11
595.8599266518231
 21
126.712799447564
 31
0.0
  0
LINE
  5
1E6
330
1F
100
AcDbEntity
  8
Sichtbare_Kanten_TC_020513_DIN_
  6
Continuous
 62
     7
100
AcDbLine
 10
595.8599266518199
 20
134.928397762835
 30
0.0
 11
595.8599266518199
 21
139.756377318938
 31
0.0
  0
LINE
  5
1E7
330
1F
100
AcDbEntity
  8
Sichtbare_Kanten_TC_020513_DIN_
  6
Continuous
 62
     7
100
AcDbLine
 10
595.8599266518199
 20
139.756377318938
 30
0.0
 11
595.8599266518199
 21
140.104949210657
 31
0.0
  0
LINE
  5
1E8
330
1F
100
AcDbEntity
  8
Sichtbare_Kanten_TC_020513_DIN_
  6
Continuous
 62
     7
100
AcDbLine
 10
595.8599266518199
 20
140.104949210657
 30
0.0
 11
595.8599266518181
 21
144.073784782559
 31
0.0
  0
LINE
  5
1E9
330
1F
100
AcDbEntity
  8
Sichtbare_Kanten_TC_020513_DIN_
  6
Continuous
 62
     7
100
AcDbLine
 10
595.8599266518149
 20
154.509041031756
 30
0.0
 11
595.8599266518161
 21
156.556260716354
 31
0.0
  0
LINE
  5
1EA
330
1F
100
AcDbEntity
  8
Sichtbare_Kanten_TC_020513_DIN_
  6
Continuous
 62
     7
100
AcDbLine
 10
595.8599266518211
 20
161.712799447564
 30
0.0
 11
595.8599266518161
 21
156.556260716354
 31
0.0
  0
LINE
  5
1EB
330
1F
100
AcDbEntity
  8
Sichtbare_Kanten_TC_020513_DIN_
  6
Continuous
 62
     7
100
AcDbLine
 10
597.2599266518159
 20
156.556260716354
 30
0.0
 11
597.259926651815
 21
154.509041031756
 31
0.0
  0
LINE
  5
1EC
330
1F
100
AcDbEntity
  8
Sichtbare_Kanten_TC_020513_DIN_
  6
Continuous
 62
     7
100
AcDbLine
 10
597.2599266518159
 20
156.556260716354
 30
0.0
 11
597.2599266518209
 21
161.712799447564
 31
0.0
  0
LINE
  5
1ED
330
1F
100
AcDbEntity
  8
Sichtbare_Kanten_TC_020513_DIN_
  6
Continuous
 62
     7
100
AcDbLine
 10
597.259926651818
 20
144.073784782559
 30
0.0
 11
597.25992665182
 21
140.104949210657
 31
0.0
  0
LINE
  5
1EE
330
1F
100
AcDbEntity
  8
Sichtbare_Kanten_TC_020513_DIN_
  6
Continuous
 62
     7
100
AcDbLine
 10
597.25992665182
 20
140.104949210657
 30
0.0
 11
597.25992665182
 21
139.756377318938
 31
0.0
  0
LINE
  5
1EF
330
1F
100
AcDbEntity
  8
Sichtbare_Kanten_TC_020513_DIN_
  6
Continuous
 62
     7
100
AcDbLine
 10
597.25992665182
 20
139.756377318938
 30
0.0
 11
597.25992665182
 21
134.928397762835
 31
0.0
  0
LINE
  5
1F0
330
1F
100
AcDbEntity
  8
Sichtbare_Kanten_TC_020513_DIN_
  6
Continuous
 62
     7
100
AcDbLine
 10
597.259926651823
 20
126.712799447564
 30
0.0
 11
597.25992665182
 21
134.928397762835
 31
0.0
  0
LINE
  5
1F1
330
1F
100
AcDbEntity
  8
Sichtbare_Kanten_TC_020513_DIN_
  6
Continuous
 62
     7
100
AcDbLine
 10
597.259926651823
 20
126.712799447564
 30
0.0
 11
597.259926651823
 21
126.575144532557
 31
0.0
  0
LINE
  5
1F2
330
1F
100
AcDbEntity
  8
Sichtbare_Kanten_TC_020513_DIN_
  6
Continuous
 62
     7
100
AcDbLine
 10
597.259926651823
 20
126.712799447564
 30
0.0
 11
595.8599266518231
 21
126.712799447564
 31
0.0
  0
LINE
  5
1F3
330
1F
100
AcDbEntity
  8
Sichtbare_Kanten_TC_020513_DIN_
  6
Continuous
 62
     7
100
AcDbLine
 10
597.2599266518209
 20
161.712799447564
 30
0.0
 11
595.8599266518211
 21
161.712799447564
 31
0.0
  0
LINE
  5
1F4
330
1F
100
AcDbEntity
  8
Sichtbare_Kanten_TC_020513_DIN_
  6
Continuous
 62
     7
100
AcDbLine
 10
592.8824747705589
 20
152.073784782559
 30
0.0
 11
589.993289349223
 21
152.073784782559
 31
0.0
  0
LINE
  5
1F5
330
1F
100
AcDbEntity
  8
Sichtbare_Kanten_TC_020513_DIN_
  6
Continuous
 62
     7
100
AcDbLine
 10
589.383409427393
 20
142.513607754062
 30
0.0
 11
589.751807892651
 21
143.888489543835
 31
0.0
  0
LINE
  5
1F6
330
1F
100
AcDbEntity
  8
Sichtbare_Kanten_TC_020513_DIN_
  6
Continuous
 62
     7
100
AcDbLine
 10
589.993289349223
 20
144.073784782559
 30
0.0
 11
594.4599266518139
 21
144.073784782559
 31
0.0
  0
LINE
  5
1F7
330
1F
100
AcDbEntity
  8
Sichtbare_Kanten_TC_020513_DIN_
  6
Continuous
 62
     7
100
AcDbLine
 10
594.4599266518139
 20
153.397994902329
 30
0.0
 11
593.6485192136779
 21
152.430997172873
 31
0.0
  0
LINE
  5
1F8
330
1F
100
AcDbEntity
  8
Sichtbare_Kanten_TC_020513_DIN_
  6
Continuous
 62
     7
100
AcDbLine
 10
586.560004619562
 20
155.29042208515
 30
0.0
 11
584.6281529669841
 21
155.29042208515
 31
0.0
  0
LINE
  5
1F9
330
1F
100
AcDbEntity
  8
Sichtbare_Kanten_TC_020513_DIN_
  6
Continuous
 62
     7
100
AcDbLine
 10
584.628152966983
 20
153.89042208515
 30
0.0
 11
586.560004619562
 21
153.89042208515
 31
0.0
  0
LINE
  5
1FA
330
1F
100
AcDbEntity
  8
Sichtbare_Kanten_TC_020513_DIN_
  6
Continuous
 62
     7
100
AcDbLine
 10
586.560004619562
 20
155.29042208515
 30
0.0
 11
587.8821397262959
 21
155.29042208515
 31
0.0
  0
LINE
  5
1FB
330
1F
100
AcDbEntity
  8
Sichtbare_Kanten_TC_020513_DIN_
  6
Continuous
 62
     7
100
AcDbLine
 10
587.8821397262959
 20
153.89042208515
 30
0.0
 11
586.560004619562
 21
153.89042208515
 31
0.0
  0
LINE
  5
1FC
330
1F
100
AcDbEntity
  8
Sichtbare_Kanten_TC_020513_DIN_
  6
Continuous
 62
     7
100
AcDbLine
 10
597.3599266518231
 20
126.475144532557
 30
0.0
 11
598.2939152232391
 21
126.475144532557
 31
0.0
  0
LINE
  5
1FD
330
1F
100
AcDbEntity
  8
Sichtbare_Kanten_TC_020513_DIN_
  6
Continuous
 62
     7
100
AcDbLine
 10
599.959926651823
 20
125.075144532557
 30
0.0
 11
600.297581566831
 21
125.075144532557
 31
0.0
  0
LINE
  5
1FE
330
1F
100
AcDbEntity
  8
Sichtbare_Kanten_TC_020513_DIN_
  6
Continuous
 62
     7
100
AcDbLine
 10
600.297581566831
 20
126.475144532557
 30
0.0
 11
600.297581566831
 21
125.075144532557
 31
0.0
  0
LINE
  5
1FF
330
1F
100
AcDbEntity
  8
Sichtbare_Kanten_TC_020513_DIN_
  6
Continuous
 62
     7
100
AcDbLine
 10
600.297581566831
 20
126.475144532557
 30
0.0
 11
599.959926651823
 21
126.475144532557
 31
0.0
  0
LINE
  5
200
330
1F
100
AcDbEntity
  8
Sichtbare_Kanten_TC_020513_DIN_
  6
Continuous
 62
     7
100
AcDbLine
 10
587.5191633545371
 20
136.413571017376
 30
0.0
 11
589.1477090073399
 21
141.921942187625
 31
0.0
  0
LINE
  5
201
330
1F
100
AcDbEntity
  8
Sichtbare_Kanten_TC_020513_DIN_
  6
Continuous
 62
     7
100
AcDbLine
 10
589.1477090073399
 20
141.330276621188
 30
0.0
 11
587.5191633545371
 21
135.821905450939
 31
0.0
  0
LINE
  5
202
330
1F
100
AcDbEntity
  8
Sichtbare_Kanten_TC_020513_DIN_
  6
Continuous
 62
     7
100
AcDbLine
 10
584.6281529669841
 20
155.29042208515
 30
0.0
 11
562.2917003366399
 21
155.29042208515
 31
0.0
  0
LINE
  5
203
330
1F
100
AcDbEntity
  8
Sichtbare_Kanten_TC_020513_DIN_
  6
Continuous
 62
     7
100
AcDbLine
 10
562.2917003366399
 20
153.89042208515
 30
0.0
 11
584.628152966983
 21
153.89042208515
 31
0.0
  0
LINE
  5
204
330
1F
100
AcDbEntity
  8
Sichtbare_Kanten_TC_020513_DIN_
  6
Continuous
 62
     7
100
AcDbLine
 10
560.359848684062
 20
155.29042208515
 30
0.0
 11
559.0377135773319
 21
155.29042208515
 31
0.0
  0
LINE
  5
205
330
1F
100
AcDbEntity
  8
Sichtbare_Kanten_TC_020513_DIN_
  6
Continuous
 62
     7
100
AcDbLine
 10
560.359848684062
 20
155.29042208515
 30
0.0
 11
562.2917003366399
 21
155.29042208515
 31
0.0
  0
LINE
  5
206
330
1F
100
AcDbEntity
  8
Sichtbare_Kanten_TC_020513_DIN_
  6
Continuous
 62
     7
100
AcDbLine
 10
585.5873117019589
 20
134.478429308885
 30
0.0
 11
561.332541601668
 21
134.478429308885
 31
0.0
  0
LINE
  5
207
330
1F
100
AcDbEntity
  8
Sichtbare_Kanten_TC_020513_DIN_
  6
Continuous
 62
     7
100
AcDbLine
 10
557.7721442962891
 20
141.330276621188
 30
0.0
 11
559.4006899490901
 21
135.821905450939
 31
0.0
  0
LINE
  5
208
330
1F
100
AcDbEntity
  8
Sichtbare_Kanten_TC_020513_DIN_
  6
Continuous
 62
     7
100
AcDbLine
 10
557.5364438762349
 20
142.513607754062
 30
0.0
 11
557.1680454109769
 21
143.888489543835
 31
0.0
  0
LINE
  5
209
330
1F
100
AcDbEntity
  8
Sichtbare_Kanten_TC_020513_DIN_
  6
Continuous
 62
     7
100
AcDbLine
 10
554.0373785330689
 20
152.073784782559
 30
0.0
 11
556.9265639544051
 21
152.073784782559
 31
0.0
  0
LINE
  5
20A
330
1F
100
AcDbEntity
  8
Sichtbare_Kanten_TC_020513_DIN_
  6
Continuous
 62
     7
100
AcDbLine
 10
552.4599266518139
 20
153.397994902329
 30
0.0
 11
553.27133408995
 21
152.430997172873
 31
0.0
  0
LINE
  5
20B
330
1F
100
AcDbEntity
  8
Sichtbare_Kanten_TC_020513_DIN_
  6
Continuous
 62
     7
100
AcDbLine
 10
556.9265639544051
 20
144.073784782559
 30
0.0
 11
552.4599266518139
 21
144.073784782559
 31
0.0
  0
LINE
  5
20C
330
1F
100
AcDbEntity
  8
Sichtbare_Kanten_TC_020513_DIN_
  6
Continuous
 62
     7
100
AcDbLine
 10
551.0599266518211
 20
161.712799447564
 30
0.0
 11
551.0599266518161
 21
156.556260716354
 31
0.0
  0
LINE
  5
20D
330
1F
100
AcDbEntity
  8
Sichtbare_Kanten_TC_020513_DIN_
  6
Continuous
 62
     7
100
AcDbLine
 10
551.059926651815
 20
154.509041031756
 30
0.0
 11
551.0599266518161
 21
156.556260716354
 31
0.0
  0
LINE
  5
20E
330
1F
100
AcDbEntity
  8
Sichtbare_Kanten_TC_020513_DIN_
  6
Continuous
 62
     7
100
AcDbLine
 10
551.05992665182
 20
140.104949210657
 30
0.0
 11
551.0599266518179
 21
144.073784782559
 31
0.0
  0
LINE
  5
20F
330
1F
100
AcDbEntity
  8
Sichtbare_Kanten_TC_020513_DIN_
  6
Continuous
 62
     7
100
AcDbLine
 10
551.05992665182
 20
139.756377318938
 30
0.0
 11
551.05992665182
 21
140.104949210657
 31
0.0
  0
LINE
  5
210
330
1F
100
AcDbEntity
  8
Sichtbare_Kanten_TC_020513_DIN_
  6
Continuous
 62
     7
100
AcDbLine
 10
551.05992665182
 20
134.928397762835
 30
0.0
 11
551.05992665182
 21
139.756377318938
 31
0.0
  0
LINE
  5
211
330
1F
100
AcDbEntity
  8
Sichtbare_Kanten_TC_020513_DIN_
  6
Continuous
 62
     7
100
AcDbLine
 10
551.05992665182
 20
134.928397762835
 30
0.0
 11
551.059926651822
 21
126.712799447564
 31
0.0
  0
LINE
  5
212
330
1F
100
AcDbEntity
  8
Sichtbare_Kanten_TC_020513_DIN_
  6
Continuous
 62
     7
100
AcDbLine
 10
551.0599266518229
 20
126.575144532557
 30
0.0
 11
551.059926651822
 21
126.712799447564
 31
0.0
  0
LINE
  5
213
330
1F
100
AcDbEntity
  8
Sichtbare_Kanten_TC_020513_DIN_
  6
Continuous
 62
     7
100
AcDbLine
 10
549.6599266518231
 20
126.712799447564
 30
0.0
 11
549.6599266518231
 21
126.575144532557
 31
0.0
  0
LINE
  5
214
330
1F
100
AcDbEntity
  8
Sichtbare_Kanten_TC_020513_DIN_
  6
Continuous
 62
     7
100
AcDbLine
 10
549.6599266518231
 20
126.712799447564
 30
0.0
 11
549.6599266518201
 21
134.928397762835
 31
0.0
  0
LINE
  5
215
330
1F
100
AcDbEntity
  8
Sichtbare_Kanten_TC_020513_DIN_
  6
Continuous
 62
     7
100
AcDbLine
 10
549.6599266518201
 20
139.756377318938
 30
0.0
 11
549.6599266518201
 21
134.928397762835
 31
0.0
  0
LINE
  5
216
330
1F
100
AcDbEntity
  8
Sichtbare_Kanten_TC_020513_DIN_
  6
Continuous
 62
     7
100
AcDbLine
 10
549.6599266518201
 20
140.104949210657
 30
0.0
 11
549.6599266518201
 21
139.756377318938
 31
0.0
  0
LINE
  5
217
330
1F
100
AcDbEntity
  8
Sichtbare_Kanten_TC_020513_DIN_
  6
Continuous
 62
     7
100
AcDbLine
 10
549.6599266518181
 20
144.073784782559
 30
0.0
 11
549.6599266518201
 21
140.104949210657
 31
0.0
  0
LINE
  5
218
330
1F
100
AcDbEntity
  8
Sichtbare_Kanten_TC_020513_DIN_
  6
Continuous
 62
     7
100
AcDbLine
 10
549.659926651816
 20
156.556260716354
 30
0.0
 11
549.6599266518151
 21
154.509041031756
 31
0.0
  0
LINE
  5
219
330
1F
100
AcDbEntity
  8
Sichtbare_Kanten_TC_020513_DIN_
  6
Continuous
 62
     7
100
AcDbLine
 10
549.659926651816
 20
156.556260716354
 30
0.0
 11
549.659926651821
 21
161.712799447564
 31
0.0
  0
LINE
  5
21A
330
1F
100
AcDbEntity
  8
Sichtbare_Kanten_TC_020513_DIN_
  6
Continuous
 62
     7
100
AcDbLine
 10
562.2917003366399
 20
153.89042208515
 30
0.0
 11
560.359848684062
 21
153.89042208515
 31
0.0
  0
LINE
  5
21B
330
1F
100
AcDbEntity
  8
Sichtbare_Kanten_TC_020513_DIN_
  6
Continuous
 62
     7
100
AcDbLine
 10
559.0377135773319
 20
153.89042208515
 30
0.0
 11
560.359848684062
 21
153.89042208515
 31
0.0
  0
LINE
  5
21C
330
1F
100
AcDbEntity
  8
Sichtbare_Kanten_TC_020513_DIN_
  6
Continuous
 62
     7
100
AcDbLine
 10
549.6599266518231
 20
126.712799447564
 30
0.0
 11
551.059926651822
 21
126.712799447564
 31
0.0
  0
LINE
  5
21D
330
1F
100
AcDbEntity
  8
Sichtbare_Kanten_TC_020513_DIN_
  6
Continuous
 62
     7
100
AcDbLine
 10
549.659926651821
 20
161.712799447564
 30
0.0
 11
551.0599266518211
 21
161.712799447564
 31
0.0
  0
LINE
  5
21E
330
1F
100
AcDbEntity
  8
Sichtbare_Kanten_TC_020513_DIN_
  6
Continuous
 62
     7
100
AcDbLine
 10
546.959926651823
 20
125.075144532557
 30
0.0
 11
546.622271736816
 21
125.075144532557
 31
0.0
  0
LINE
  5
21F
330
1F
100
AcDbEntity
  8
Sichtbare_Kanten_TC_020513_DIN_
  6
Continuous
 62
     7
100
AcDbLine
 10
546.622271736816
 20
126.475144532557
 30
0.0
 11
546.959926651823
 21
126.475144532557
 31
0.0
  0
LINE
  5
220
330
1F
100
AcDbEntity
  8
Sichtbare_Kanten_TC_020513_DIN_
  6
Continuous
 62
     7
100
AcDbLine
 10
546.622271736816
 20
126.475144532557
 30
0.0
 11
546.622271736816
 21
125.075144532557
 31
0.0
  0
LINE
  5
221
330
1F
100
AcDbEntity
  8
Sichtbare_Kanten_TC_020513_DIN_
  6
Continuous
 62
     7
100
AcDbLine
 10
549.5599266518229
 20
126.475144532557
 30
0.0
 11
548.625938080407
 21
126.475144532557
 31
0.0
  0
LINE
  5
222
330
1F
100
AcDbEntity
  8
Sichtbare_Kanten_TC_020513_DIN_
  6
Continuous
 62
     7
100
AcDbLine
 10
559.4006899490901
 20
136.413571017376
 30
0.0
 11
557.7721442962891
 21
141.921942187625
 31
0.0
  0
LINE
  5
223
330
1F
100
AcDbEntity
  8
Sichtbare_Kanten_TC_020513_DIN_
  6
Continuous
 62
     7
100
AcDbLine
 10
561.332541601668
 20
135.070094875322
 30
0.0
 11
585.587311701958
 21
135.070094875322
 31
0.0
  0
LINE
  5
224
330
1F
100
AcDbEntity
  8
Sichtbare_Kanten_TC_020513_DIN_
  6
Continuous
 62
     7
100
AcDbLine
 10
546.959926651823
 20
121.978859022958
 30
0.0
 11
548.3599266518231
 21
121.978859022958
 31
0.0
  0
LINE
  5
225
330
1F
100
AcDbEntity
  8
Sichtbare_Kanten_TC_020513_DIN_
  6
Continuous
 62
     7
100
AcDbLine
 10
546.9599266518221
 20
143.712799447564
 30
0.0
 11
548.3599266518231
 21
143.712799447564
 31
0.0
  0
LINE
  5
226
330
1F
100
AcDbEntity
  8
Sichtbare_Kanten_TC_020513_DIN_
  6
Continuous
 62
     7
100
AcDbLine
 10
598.5599266518229
 20
121.978859022958
 30
0.0
 11
599.959926651823
 21
121.978859022958
 31
0.0
  0
LINE
  5
227
330
1F
100
AcDbEntity
  8
Sichtbare_Kanten_TC_020513_DIN_
  6
Continuous
 62
     7
100
AcDbLine
 10
598.559926651822
 20
143.712799447564
 30
0.0
 11
599.959926651823
 21
143.712799447564
 31
0.0
  0
LINE
  5
228
330
1F
100
AcDbEntity
  8
Sichtbare_Kanten_TC_020513_DIN_
  6
Continuous
 62
     7
100
AcDbLine
 10
589.1477090073399
 20
141.661607710071
 30
0.0
 11
589.1477090073399
 21
141.921942187625
 31
0.0
  0
LINE
  5
229
330
1F
100
AcDbEntity
  8
Sichtbare_Kanten_TC_020513_DIN_
  6
Continuous
 62
     7
100
AcDbLine
 10
589.1477090073399
 20
141.330276621188
 30
0.0
 11
589.1477090073399
 21
141.661607710071
 31
0.0
  0
LINE
  5
22A
330
1F
100
AcDbEntity
  8
Sichtbare_Kanten_TC_020513_DIN_
  6
Continuous
 62
     7
100
AcDbLine
 10
595.146525906423
 20
154.073784726647
 30
0.0
 11
595.833123730519
 21
154.073784726647
 31
0.0
  0
LINE
  5
22B
330
1F
100
AcDbEntity
  8
Sichtbare_Kanten_TC_020513_DIN_
  6
Continuous
 62
     7
100
AcDbLine
 10
596.475928564591
 20
154.509041031756
 30
0.0
 11
597.259926651815
 21
154.509041031756
 31
0.0
  0
LINE
  5
22C
330
1F
100
AcDbEntity
  8
Sichtbare_Kanten_TC_020513_DIN_
  6
Continuous
 62
     7
100
AcDbLine
 10
595.8599266518149
 20
154.509041031756
 30
0.0
 11
596.475928564591
 21
154.509041031756
 31
0.0
  0
LINE
  5
22D
330
1F
100
AcDbEntity
  8
Sichtbare_Kanten_TC_020513_DIN_
  6
Continuous
 62
     7
100
AcDbLine
 10
595.833124808734
 20
154.073784782559
 30
0.0
 11
596.828987180158
 21
154.073784782559
 31
0.0
  0
LINE
  5
22E
330
1F
100
AcDbEntity
  8
Sichtbare_Kanten_TC_020513_DIN_
  6
Continuous
 62
     7
100
AcDbLine
 10
597.259926651818
 20
144.073784782559
 30
0.0
 11
594.4599266518139
 21
144.073784782559
 31
0.0
  0
LINE
  5
22F
330
1F
100
AcDbEntity
  8
Sichtbare_Kanten_TC_020513_DIN_
  6
Continuous
 62
     7
100
AcDbLine
 10
597.259926651815
 20
154.509041031756
 30
0.0
 11
597.259926651818
 21
144.073784782559
 31
0.0
  0
LINE
  5
230
330
1F
100
AcDbEntity
  8
Sichtbare_Kanten_TC_020513_DIN_
  6
Continuous
 62
     7
100
AcDbLine
 10
587.8821397262959
 20
154.506423215431
 30
0.0
 11
587.8821397262959
 21
155.29042208515
 31
0.0
  0
LINE
  5
231
330
1F
100
AcDbEntity
  8
Sichtbare_Kanten_TC_020513_DIN_
  6
Continuous
 62
     7
100
AcDbLine
 10
587.8821397262959
 20
153.89042208515
 30
0.0
 11
587.8821397262959
 21
154.506423215431
 31
0.0
  0
LINE
  5
232
330
1F
100
AcDbEntity
  8
Sichtbare_Kanten_TC_020513_DIN_
  6
Continuous
 62
     7
100
AcDbLine
 10
559.0377135773319
 20
154.506423215433
 30
0.0
 11
559.0377135773319
 21
153.89042208515
 31
0.0
  0
LINE
  5
233
330
1F
100
AcDbEntity
  8
Sichtbare_Kanten_TC_020513_DIN_
  6
Continuous
 62
     7
100
AcDbLine
 10
559.0377135773319
 20
155.29042208515
 30
0.0
 11
559.0377135773319
 21
154.506423215433
 31
0.0
  0
LINE
  5
234
330
1F
100
AcDbEntity
  8
Sichtbare_Kanten_TC_020513_DIN_
  6
Continuous
 62
     7
100
AcDbLine
 10
557.7721442962891
 20
141.661607710072
 30
0.0
 11
557.7721442962891
 21
141.330276621188
 31
0.0
  0
LINE
  5
235
330
1F
100
AcDbEntity
  8
Sichtbare_Kanten_TC_020513_DIN_
  6
Continuous
 62
     7
100
AcDbLine
 10
557.7721442962891
 20
141.921942187625
 30
0.0
 11
557.7721442962891
 21
141.661607710072
 31
0.0
  0
LINE
  5
236
330
1F
100
AcDbEntity
  8
Sichtbare_Kanten_TC_020513_DIN_
  6
Continuous
 62
     7
100
AcDbLine
 10
549.6599266518181
 20
144.073784782559
 30
0.0
 11
549.6599266518151
 21
154.509041031756
 31
0.0
  0
LINE
  5
237
330
1F
100
AcDbEntity
  8
Sichtbare_Kanten_TC_020513_DIN_
  6
Continuous
 62
     7
100
AcDbLine
 10
550.443924739039
 20
154.509041031756
 30
0.0
 11
551.059926651815
 21
154.509041031756
 31
0.0
  0
LINE
  5
238
330
1F
100
AcDbEntity
  8
Sichtbare_Kanten_TC_020513_DIN_
  6
Continuous
 62
     7
100
AcDbLine
 10
549.6599266518151
 20
154.509041031756
 30
0.0
 11
550.443924739039
 21
154.509041031756
 31
0.0
  0
LINE
  5
239
330
1F
100
AcDbEntity
  8
Sichtbare_Kanten_TC_020513_DIN_
  6
Continuous
 62
     7
100
AcDbLine
 10
551.773327397206
 20
154.073784726647
 30
0.0
 11
551.0867295731091
 21
154.073784726647
 31
0.0
  0
LINE
  5
23A
330
1F
100
AcDbEntity
  8
Sichtbare_Kanten_TC_020513_DIN_
  6
Continuous
 62
     7
100
AcDbLine
 10
550.090866123471
 20
154.073784782559
 30
0.0
 11
551.0867284948949
 21
154.073784782559
 31
0.0
  0
LINE
  5
23B
330
1F
100
AcDbEntity
  8
Sichtbare_Kanten_TC_020513_DIN_
  6
Continuous
 62
     7
100
AcDbLine
 10
552.4599266518139
 20
144.073784782559
 30
0.0
 11
549.6599266518181
 21
144.073784782559
 31
0.0
  0
LINE
  5
23C
330
1F
100
AcDbEntity
  8
Mittelpunktmarkierung_TC_020513_DIN_
  6
CHAIN
 62
     7
100
AcDbLine
 10
413.8783611423729
 20
136.712799447564
 30
0.0
 11
399.4783611423728
 21
136.712799447564
 31
0.0
  0
LINE
  5
23D
330
1F
100
AcDbEntity
  8
Mittelpunktmarkierung_TC_020513_DIN_
  6
CHAIN
 62
     7
100
AcDbLine
 10
406.6783611423728
 20
143.912799447564
 30
0.0
 11
406.6783611423728
 21
129.512799447564
 31
0.0
  0
LINE
  5
23E
330
1F
100
AcDbEntity
  8
Mittelpunktmarkierung_TC_020513_DIN_
  6
CHAIN
 62
     7
100
AcDbLine
 10
413.9283611423728
 20
125.712799447564
 30
0.0
 11
405.4283611423728
 21
125.712799447564
 31
0.0
  0
LINE
  5
23F
330
1F
100
AcDbEntity
  8
Mittelpunktmarkierung_TC_020513_DIN_
  6
CHAIN
 62
     7
100
AcDbLine
 10
409.6783611423728
 20
129.962799447564
 30
0.0
 11
409.6783611423728
 21
121.462799447564
 31
0.0
  0
LINE
  5
240
330
1F
100
AcDbEntity
  8
Mittelpunktmarkierung_TC_020513_DIN_
  6
CHAIN
 62
     7
100
AcDbLine
 10
482.928361142373
 20
125.712799447564
 30
0.0
 11
474.428361142373
 21
125.712799447564
 31
0.0
  0
LINE
  5
241
330
1F
100
AcDbEntity
  8
Mittelpunktmarkierung_TC_020513_DIN_
  6
CHAIN
 62
     7
100
AcDbLine
 10
478.678361142373
 20
129.962799447564
 30
0.0
 11
478.678361142373
 21
121.462799447564
 31
0.0
  0
LINE
  5
242
330
1F
100
AcDbEntity
  8
Mittelpunktmarkierung_TC_020513_DIN_
  6
CHAIN
 62
     7
100
AcDbLine
 10
488.878361142373
 20
136.712799447564
 30
0.0
 11
474.478361142373
 21
136.712799447564
 31
0.0
  0
LINE
  5
243
330
1F
100
AcDbEntity
  8
Mittelpunktmarkierung_TC_020513_DIN_
  6
CHAIN
 62
     7
100
AcDbLine
 10
481.678361142373
 20
143.912799447564
 30
0.0
 11
481.678361142373
 21
129.512799447564
 31
0.0
  0
LINE
  5
244
330
1F
100
AcDbEntity
  8
Mittelpunktmarkierung_TC_020513_DIN_
  6
CHAIN
 62
     7
100
AcDbLine
 10
590.5119266518509
 20
100.1027994475641
 30
0.0
 11
556.4079266518511
 21
100.1027994475641
 31
0.0
  0
LINE
  5
245
330
1F
100
AcDbEntity
  8
Mittelpunktmarkierung_TC_020513_DIN_
  6
CHAIN
 62
     7
100
AcDbLine
 10
573.459926651851
 20
117.154799447564
 30
0.0
 11
573.459926651851
 21
83.0507994475641
 31
0.0
  0
LINE
  5
246
330
1F
100
AcDbEntity
  8
Mittellinie_TC_020513_DIN_
  6
CHAIN
 62
     7
100
AcDbLine
 10
550.9599266518139
 20
78.21279944756411
 30
0.0
 11
550.9599266518139
 21
87.21279944756411
 31
0.0
  0
LINE
  5
247
330
1F
100
AcDbEntity
  8
Mittellinie_TC_020513_DIN_
  6
CHAIN
 62
     7
100
AcDbLine
 10
595.9599266518139
 20
78.21279944756411
 30
0.0
 11
595.9599266518139
 21
87.21279944756411
 31
0.0
  0
LINE
  5
248
330
1F
100
AcDbEntity
  8
Mittellinie_TC_020513_DIN_
  6
CHAIN
 62
     7
100
AcDbLine
 10
543.8599266518231
 20
136.712799447564
 30
0.0
 11
549.459926651823
 21
136.712799447564
 31
0.0
  0
LINE
  5
249
330
1F
100
AcDbEntity
  8
Mittellinie_TC_020513_DIN_
  6
CHAIN
 62
     7
100
AcDbLine
 10
545.8599266518231
 20
136.712799447564
 30
0.0
 11
553.6099266518231
 21
136.712799447564
 31
0.0
  0
LINE
  5
24A
330
1F
100
AcDbEntity
  8
Mittellinie_TC_020513_DIN_
  6
CHAIN
 62
     7
100
AcDbLine
 10
593.309926651822
 20
136.712799447564
 30
0.0
 11
601.059926651822
 21
136.712799447564
 31
0.0
  0
LINE
  5
24B
330
1F
100
AcDbEntity
  8
Mittellinie_TC_020513_DIN_
  6
CHAIN
 62
     7
100
AcDbLine
 10
597.459926651823
 20
136.712799447564
 30
0.0
 11
603.059926651822
 21
136.712799447564
 31
0.0
  0
LINE
  5
24C
330
1F
100
AcDbEntity
  8
Mittellinie_TC_020513_DIN_
  6
CHAIN
 62
     7
100
AcDbLine
 10
500.6783611423729
 20
100.1027994475641
 30
0.0
 11
518.678361142373
 21
100.1027994475641
 31
0.0
  0
LINE
  5
24D
330
1F
100
AcDbEntity
  8
Mittellinie_TC_020513_DIN_
  6
CHAIN
 62
     7
100
AcDbLine
 10
510.178361142373
 20
78.21279944756411
 30
0.0
 11
510.178361142373
 21
87.21279944756411
 31
0.0
  0
LINE
  5
24E
330
1F
100
AcDbEntity
  8
Mittellinie_TC_020513_DIN_
  6
CHAIN
 62
     7
100
AcDbLine
 10
378.1783611423728
 20
78.21279944756411
 30
0.0
 11
378.1783611423728
 21
87.21279944756411
 31
0.0
  0
LINE
  5
24F
330
1F
100
AcDbEntity
  8
Mittellinie_TC_020513_DIN_
  6
CHAIN
 62
     7
100
AcDbLine
 10
369.6783611423728
 20
100.1027994475641
 30
0.0
 11
387.6783611423729
 21
100.1027994475641
 31
0.0
  0
LINE
  5
250
330
1F
100
AcDbEntity
  8
Mittellinie_TC_020513_DIN_
  6
CHAIN
 62
     7
100
AcDbLine
 10
444.1783611423729
 20
76.60660963357671
 30
0.0
 11
444.1783611423729
 21
146.353348371563
 31
0.0
  0
ARC
  5
6A1
330
1F
100
AcDbEntity
  8
Sichtbare_Kanten_TC_020513_DIN_
  6
Continuous
 62
     7
100
AcDbCircle
 10
446.178361142373
 20
107.1564660587
 30
0.0
 40
0.25
100
AcDbArc
 50
180.0
 51
299.9706156499731
  0
ARC
  5
6A2
330
1F
100
AcDbEntity
  8
Sichtbare_Kanten_TC_020513_DIN_
  6
Continuous
 62
     7
100
AcDbCircle
 10
447.178361142373
 20
107.733132725367
 30
0.0
 40
0.2500000000000228
100
AcDbArc
 50
299.9706156498592
 51
119.970615650051
  0
ARC
  5
6A3
330
1F
100
AcDbEntity
  8
Sichtbare_Kanten_TC_020513_DIN_
  6
Continuous
 62
     7
100
AcDbCircle
 10
447.178361142373
 20
108.712799447564
 30
0.0
 40
0.25
100
AcDbArc
 50
270.0
 51
90.0
  0
ARC
  5
6A4
330
1F
100
AcDbEntity
  8
Sichtbare_Kanten_TC_020513_DIN_
  6
Continuous
 62
     7
100
AcDbCircle
 10
447.178361142373
 20
109.692466169762
 30
0.0
 40
0.2499999999996315
100
AcDbArc
 50
240.0293843498335
 51
60.02938435014084
  0
ARC
  5
6A5
330
1F
100
AcDbEntity
  8
Sichtbare_Kanten_TC_020513_DIN_
  6
Continuous
 62
     7
100
AcDbCircle
 10
446.178361142373
 20
110.269132836429
 30
0.0
 40
0.2500000000000228
100
AcDbArc
 50
60.02938435014084
 51
180.0
  0
ARC
  5
6A6
330
1F
100
AcDbEntity
  8
Sichtbare_Kanten_TC_020513_DIN_
  6
Continuous
 62
     7
100
AcDbCircle
 10
441.1783611423728
 20
107.722799447564
 30
0.0
 40
0.25
100
AcDbArc
 50
180.0
 51
0.0
  0
ARC
  5
6A7
330
1F
100
AcDbEntity
  8
Sichtbare_Kanten_TC_020513_DIN_
  6
Continuous
 62
     7
100
AcDbCircle
 10
441.1783611423728
 20
109.702799447564
 30
0.0
 40
0.25
100
AcDbArc
 50
0.0
 51
180.0
  0
ARC
  5
6A8
330
1F
100
AcDbEntity
  8
Sichtbare_Kanten_TC_020513_DIN_
  6
Continuous
 62
     7
100
AcDbCircle
 10
442.1783611423728
 20
107.1564660587
 30
0.0
 40
0.25
100
AcDbArc
 50
180.0
 51
240.0293843499479
  0
ARC
  5
6A9
330
1F
100
AcDbEntity
  8
Sichtbare_Kanten_TC_020513_DIN_
  6
Continuous
 62
     7
100
AcDbCircle
 10
444.1783611423729
 20
106.003132725367
 30
0.0
 40
0.2499999999994043
100
AcDbArc
 50
240.0293843499237
 51
60.02938435007312
  0
ARC
  5
6AA
330
1F
100
AcDbEntity
  8
Sichtbare_Kanten_TC_020513_DIN_
  6
Continuous
 62
     7
100
AcDbCircle
 10
442.1783611423728
 20
110.269132836429
 30
0.0
 40
0.25
100
AcDbArc
 50
0.0
 51
180.0
  0
ARC
  5
6AB
330
1F
100
AcDbEntity
  8
Sichtbare_Kanten_TC_020513_DIN_
  6
Continuous
 62
     7
100
AcDbCircle
 10
445.1783611423728
 20
106.579799392034
 30
0.0
 40
0.25
100
AcDbArc
 50
180.0
 51
0.0
  0
ARC
  5
6AC
330
1F
100
AcDbEntity
  8
Sichtbare_Kanten_TC_020513_DIN_
  6
Continuous
 62
     7
100
AcDbCircle
 10
445.1783611423728
 20
110.845799503096
 30
0.0
 40
0.2500000000001705
100
AcDbArc
 50
0.0
 51
143.2525021774545
  0
ARC
  5
6AD
330
1F
100
AcDbEntity
  8
Sichtbare_Kanten_TC_020513_DIN_
  6
Continuous
 62
     7
100
AcDbCircle
 10
443.1783611423728
 20
110.845799503096
 30
0.0
 40
0.2499999999998181
100
AcDbArc
 50
36.74749782253772
 51
180.0
  0
ARC
  5
6AE
330
1F
100
AcDbEntity
  8
Sichtbare_Kanten_TC_020513_DIN_
  6
Continuous
 62
     7
100
AcDbCircle
 10
443.1783611423728
 20
107.722799447564
 30
0.0
 40
0.2499999999998863
100
AcDbArc
 50
180.0
 51
0.0
  0
ARC
  5
6AF
330
1F
100
AcDbEntity
  8
Sichtbare_Kanten_TC_020513_DIN_
  6
Continuous
 62
     7
100
AcDbCircle
 10
504.978361142373
 20
129.712799447564
 30
0.0
 40
7.999999999999943
100
AcDbArc
 50
0.0
 51
90.0
  0
ARC
  5
6B0
330
1F
100
AcDbEntity
  8
Sichtbare_Kanten_TC_020513_DIN_
  6
Continuous
 62
     7
100
AcDbCircle
 10
491.678361142373
 20
138.212799447564
 30
0.0
 40
0.4999999999999024
100
AcDbArc
 50
220.0290181764013
 51
270.0
  0
ARC
  5
6B1
330
1F
100
AcDbEntity
  8
Sichtbare_Kanten_TC_020513_DIN_
  6
Continuous
 62
     7
100
AcDbCircle
 10
475.981125805441
 20
125.027701693775
 30
0.0
 40
20.00000000000003
100
AcDbArc
 50
40.02901817645221
 51
64.00779443620863
  0
ARC
  5
6B2
330
1F
100
AcDbEntity
  8
Sichtbare_Kanten_TC_020513_DIN_
  6
Continuous
 62
     7
100
AcDbCircle
 10
481.678361142373
 20
136.712799447564
 30
0.0
 40
6.999999999999711
100
AcDbArc
 50
64.00779443621317
 51
180.0
  0
ARC
  5
6B3
330
1F
100
AcDbEntity
  8
Sichtbare_Kanten_TC_020513_DIN_
  6
Continuous
 62
     7
100
AcDbCircle
 10
475.178361142373
 20
123.212799447564
 30
0.0
 40
0.5
100
AcDbArc
 50
180.0
 51
251.6923269006434
  0
ARC
  5
6B4
330
1F
100
AcDbEntity
  8
Sichtbare_Kanten_TC_020513_DIN_
  6
Continuous
 62
     7
100
AcDbCircle
 10
479.733095357089
 20
136.978859022958
 30
0.0
 40
14.9999999999999
100
AcDbArc
 50
251.6923269007098
 51
334.1179484035669
  0
ARC
  5
6B5
330
1F
100
AcDbEntity
  8
Sichtbare_Kanten_TC_020513_DIN_
  6
Continuous
 62
     7
100
AcDbCircle
 10
493.678361142373
 20
130.212799447564
 30
0.0
 40
0.5
100
AcDbArc
 50
90.0
 51
154.1179484035557
  0
ARC
  5
6B6
330
1F
100
AcDbEntity
  8
Sichtbare_Kanten_TC_020513_DIN_
  6
Continuous
 62
     7
100
AcDbCircle
 10
504.978361142373
 20
129.712799447564
 30
0.0
 40
1.0
100
AcDbArc
 50
0.0
 51
90.0
  0
ARC
  5
6B7
330
1F
100
AcDbEntity
  8
Sichtbare_Kanten_TC_020513_DIN_
  6
Continuous
 62
     7
100
AcDbCircle
 10
505.940706227365
 20
124.396162144973
 30
0.0
 40
0.0999999999999943
100
AcDbArc
 50
90.0
 51
180.0
  0
ARC
  5
6B8
330
1F
100
AcDbEntity
  8
Sichtbare_Kanten_TC_020513_DIN_
  6
Continuous
 62
     7
100
AcDbCircle
 10
505.940706227365
 20
124.396162144973
 30
0.0
 40
1.5
100
AcDbArc
 50
90.0
 51
180.0
  0
ARC
  5
6B9
330
1F
100
AcDbEntity
  8
Sichtbare_Kanten_TC_020513_DIN_
  6
Continuous
 62
     7
100
AcDbCircle
 10
383.3783611423728
 20
129.712799447564
 30
0.0
 40
1.0
100
AcDbArc
 50
90.0
 51
180.0
  0
ARC
  5
6BA
330
1F
100
AcDbEntity
  8
Sichtbare_Kanten_TC_020513_DIN_
  6
Continuous
 62
     7
100
AcDbCircle
 10
394.6783611423728
 20
130.212799447564
 30
0.0
 40
0.5000000000000234
100
AcDbArc
 50
25.88205159642725
 51
90.0
  0
ARC
  5
6BB
330
1F
100
AcDbEntity
  8
Sichtbare_Kanten_TC_020513_DIN_
  6
Continuous
 62
     7
100
AcDbCircle
 10
408.6236269276571
 20
136.978859022958
 30
0.0
 40
15.00000000000001
100
AcDbArc
 50
205.8820515964332
 51
288.3076730992875
  0
ARC
  5
6BC
330
1F
100
AcDbEntity
  8
Sichtbare_Kanten_TC_020513_DIN_
  6
Continuous
 62
     7
100
AcDbCircle
 10
413.1783611423728
 20
123.212799447564
 30
0.0
 40
0.4999999999996938
100
AcDbArc
 50
288.3076730993072
 51
0.0
  0
ARC
  5
6BD
330
1F
100
AcDbEntity
  8
Sichtbare_Kanten_TC_020513_DIN_
  6
Continuous
 62
     7
100
AcDbCircle
 10
406.6783611423728
 20
136.712799447564
 30
0.0
 40
7.0
100
AcDbArc
 50
0.0
 51
115.9922055637914
  0
ARC
  5
6BE
330
1F
100
AcDbEntity
  8
Sichtbare_Kanten_TC_020513_DIN_
  6
Continuous
 62
     7
100
AcDbCircle
 10
412.3755964793042
 20
125.027701693775
 30
0.0
 40
19.9999999999994
100
AcDbArc
 50
115.9922055637915
 51
139.9709818235471
  0
ARC
  5
6BF
330
1F
100
AcDbEntity
  8
Sichtbare_Kanten_TC_020513_DIN_
  6
Continuous
 62
     7
100
AcDbCircle
 10
396.6783611423728
 20
138.212799447564
 30
0.0
 40
0.5
100
AcDbArc
 50
270.0
 51
319.9709818235861
  0
ARC
  5
6C0
330
1F
100
AcDbEntity
  8
Sichtbare_Kanten_TC_020513_DIN_
  6
Continuous
 62
     7
100
AcDbCircle
 10
383.3783611423728
 20
129.712799447564
 30
0.0
 40
8.0
100
AcDbArc
 50
90.0
 51
180.0
  0
ARC
  5
6C1
330
1F
100
AcDbEntity
  8
Sichtbare_Kanten_TC_020513_DIN_
  6
Continuous
 62
     7
100
AcDbCircle
 10
401.8603988475005
 20
148.212799447564
 30
0.0
 40
0.4999999999999089
100
AcDbArc
 50
159.7314654157446
 51
214.7314654156929
  0
ARC
  5
6C2
330
1F
100
AcDbEntity
  8
Sichtbare_Kanten_TC_020513_DIN_
  6
Continuous
 62
     7
100
AcDbCircle
 10
406.6783611423728
 20
149.712799447564
 30
0.0
 40
4.500000000000008
100
AcDbArc
 50
61.04497562813997
 51
159.7314654157202
  0
ARC
  5
6C3
330
1F
100
AcDbEntity
  8
Sichtbare_Kanten_TC_020513_DIN_
  6
Continuous
 62
     7
100
AcDbCircle
 10
410.938642823201
 20
157.412799447564
 30
0.0
 40
4.300000000000002
100
AcDbArc
 50
241.0449756281398
 51
90.0
  0
ARC
  5
6C4
330
1F
100
AcDbEntity
  8
Sichtbare_Kanten_TC_020513_DIN_
  6
Continuous
 62
     7
100
AcDbCircle
 10
402.938642823201
 20
126.712799447564
 30
0.0
 40
35.00000000000001
100
AcDbArc
 50
90.0
 51
121.4966928421464
  0
ARC
  5
6C5
330
1F
100
AcDbEntity
  8
Sichtbare_Kanten_TC_020513_DIN_
  6
Continuous
 62
     7
100
AcDbCircle
 10
382.6783611423728
 20
145.073784782559
 30
0.0
 40
1.0
100
AcDbArc
 50
270.0
 51
321.655939335377
  0
ARC
  5
6C6
330
1F
100
AcDbEntity
  8
Sichtbare_Kanten_TC_020513_DIN_
  6
Continuous
 62
     7
100
AcDbCircle
 10
386.6783611423728
 20
147.712799447564
 30
0.0
 40
0.5000000000001515
100
AcDbArc
 50
51.65593933537055
 51
141.6559393353283
  0
ARC
  5
6C7
330
1F
100
AcDbEntity
  8
Sichtbare_Kanten_TC_020513_DIN_
  6
Continuous
 62
     7
100
AcDbCircle
 10
396.7921180316074
 20
139.712799447564
 30
0.0
 40
0.4999999999999349
100
AcDbArc
 50
5.00000000002006
 51
51.65593933537566
  0
ARC
  5
6C8
330
1F
100
AcDbEntity
  8
Sichtbare_Kanten_TC_020513_DIN_
  6
Continuous
 62
     7
100
AcDbCircle
 10
382.4160160573803
 20
124.396162144973
 30
0.0
 40
1.5
100
AcDbArc
 50
0.0
 51
90.0
  0
ARC
  5
6C9
330
1F
100
AcDbEntity
  8
Sichtbare_Kanten_TC_020513_DIN_
  6
Continuous
 62
     7
100
AcDbCircle
 10
382.4160160573803
 20
124.396162144973
 30
0.0
 40
0.0999999999999659
100
AcDbArc
 50
0.0
 51
90.0
  0
ARC
  5
6CA
330
1F
100
AcDbEntity
  8
Sichtbare_Kanten_TC_020513_DIN_
  6
Continuous
 62
     7
100
AcDbCircle
 10
491.564604253138
 20
139.712799447564
 30
0.0
 40
0.4999999999997284
100
AcDbArc
 50
128.3440606645682
 51
174.9999999999816
  0
ARC
  5
6CB
330
1F
100
AcDbEntity
  8
Sichtbare_Kanten_TC_020513_DIN_
  6
Continuous
 62
     7
100
AcDbCircle
 10
501.6783611423729
 20
147.712799447564
 30
0.0
 40
0.5000000000005015
100
AcDbArc
 50
38.34406066464342
 51
128.3440606646499
  0
ARC
  5
6CC
330
1F
100
AcDbEntity
  8
Sichtbare_Kanten_TC_020513_DIN_
  6
Continuous
 62
     7
100
AcDbCircle
 10
505.6783611423729
 20
145.073784782559
 30
0.0
 40
1.000000000000029
100
AcDbArc
 50
218.3440606646149
 51
270.0
  0
ARC
  5
6CD
330
1F
100
AcDbEntity
  8
Sichtbare_Kanten_TC_020513_DIN_
  6
Continuous
 62
     7
100
AcDbCircle
 10
485.418079461545
 20
126.712799447564
 30
0.0
 40
34.99999999999981
100
AcDbArc
 50
58.50330715785398
 51
90.0
  0
ARC
  5
6CE
330
1F
100
AcDbEntity
  8
Sichtbare_Kanten_TC_020513_DIN_
  6
Continuous
 62
     7
100
AcDbCircle
 10
477.418079461545
 20
157.412799447564
 30
0.0
 40
4.300000000000011
100
AcDbArc
 50
90.0
 51
298.9550243718543
  0
ARC
  5
6CF
330
1F
100
AcDbEntity
  8
Sichtbare_Kanten_TC_020513_DIN_
  6
Continuous
 62
     7
100
AcDbCircle
 10
481.678361142373
 20
149.712799447564
 30
0.0
 40
4.500000000000186
100
AcDbArc
 50
20.26853458427961
 51
118.9550243718632
  0
ARC
  5
6D0
330
1F
100
AcDbEntity
  8
Sichtbare_Kanten_TC_020513_DIN_
  6
Continuous
 62
     7
100
AcDbCircle
 10
486.496323437245
 20
148.212799447564
 30
0.0
 40
0.4999999999998367
100
AcDbArc
 50
325.2685345843108
 51
20.26853458422832
  0
ARC
  5
6D1
330
1F
100
AcDbEntity
  8
Sichtbare_Kanten_TC_020513_DIN_
  6
Continuous
 62
     7
100
AcDbCircle
 10
573.459926651816
 20
100.1027994475641
 30
0.0
 40
15.13999999999601
100
AcDbArc
 50
0.0
 51
180.0
  0
ARC
  5
6D2
330
1F
100
AcDbEntity
  8
Sichtbare_Kanten_TC_020513_DIN_
  6
Continuous
 62
     7
100
AcDbCircle
 10
601.2599266518221
 20
132.712799447564
 30
0.0
 40
0.7000000000000455
100
AcDbArc
 50
180.0
 51
0.0
  0
ARC
  5
6D3
330
1F
100
AcDbEntity
  8
Sichtbare_Kanten_TC_020513_DIN_
  6
Continuous
 62
     7
100
AcDbCircle
 10
601.2599266518221
 20
140.712799447564
 30
0.0
 40
0.700000000000955
100
AcDbArc
 50
0.0
 51
180.0
  0
ARC
  5
6D4
330
1F
100
AcDbEntity
  8
Sichtbare_Kanten_TC_020513_DIN_
  6
Continuous
 62
     7
100
AcDbCircle
 10
545.6599266518231
 20
140.712799447564
 30
0.0
 40
0.7000000000000455
100
AcDbArc
 50
0.0
 51
180.0
  0
ARC
  5
6D5
330
1F
100
AcDbEntity
  8
Sichtbare_Kanten_TC_020513_DIN_
  6
Continuous
 62
     7
100
AcDbCircle
 10
545.6599266518231
 20
132.712799447564
 30
0.0
 40
0.7000000000000455
100
AcDbArc
 50
180.0
 51
0.0
  0
ARC
  5
6D6
330
1F
100
AcDbEntity
  8
Sichtbare_Kanten_TC_020513_DIN_
  6
Continuous
 62
     7
100
AcDbCircle
 10
549.759926651813
 20
127.296162144973
 30
0.0
 40
2.799999999999955
100
AcDbArc
 50
180.0
 51
270.0
  0
ARC
  5
6D7
330
1F
100
AcDbEntity
  8
Sichtbare_Kanten_TC_020513_DIN_
  6
Continuous
 62
     7
100
AcDbCircle
 10
549.759926651813
 20
127.296162144973
 30
0.0
 40
1.399999999999864
100
AcDbArc
 50
180.0
 51
270.0
  0
ARC
  5
6D8
330
1F
100
AcDbEntity
  8
Sichtbare_Kanten_TC_020513_DIN_
  6
Continuous
 62
     7
100
AcDbCircle
 10
563.176563954406
 20
124.058507229966
 30
0.0
 40
0.5
100
AcDbArc
 50
270.0
 51
0.0
  0
ARC
  5
6D9
330
1F
100
AcDbEntity
  8
Sichtbare_Kanten_TC_020513_DIN_
  6
Continuous
 62
     7
100
AcDbCircle
 10
583.743289349225
 20
124.058507229966
 30
0.0
 40
0.5
100
AcDbArc
 50
180.0
 51
270.0
  0
ARC
  5
6DA
330
1F
100
AcDbEntity
  8
Sichtbare_Kanten_TC_020513_DIN_
  6
Continuous
 62
     7
100
AcDbCircle
 10
589.993289349223
 20
153.573784782559
 30
0.0
 40
1.499999999999387
100
AcDbArc
 50
226.239878970993
 51
270.0
  0
ARC
  5
6DB
330
1F
100
AcDbEntity
  8
Sichtbare_Kanten_TC_020513_DIN_
  6
Continuous
 62
     7
100
AcDbCircle
 10
592.8824747705589
 20
153.073784782559
 30
0.0
 40
1.0
100
AcDbArc
 50
270.0
 51
320.0000000000236
  0
ARC
  5
6DC
330
1F
100
AcDbEntity
  8
Sichtbare_Kanten_TC_020513_DIN_
  6
Continuous
 62
     7
100
AcDbCircle
 10
589.993289349223
 20
143.823784782559
 30
0.0
 40
0.25
100
AcDbArc
 50
90.0
 51
164.999999999904
  0
ARC
  5
6DD
330
1F
100
AcDbEntity
  8
Sichtbare_Kanten_TC_020513_DIN_
  6
Continuous
 62
     7
100
AcDbCircle
 10
556.9265639544051
 20
153.573784782559
 30
0.0
 40
1.5
100
AcDbArc
 50
270.0
 51
313.7601210290321
  0
ARC
  5
6DE
330
1F
100
AcDbEntity
  8
Sichtbare_Kanten_TC_020513_DIN_
  6
Continuous
 62
     7
100
AcDbCircle
 10
554.0373785330689
 20
153.073784782559
 30
0.0
 40
0.999999999999646
100
AcDbArc
 50
219.9999999999764
 51
270.0
  0
ARC
  5
6DF
330
1F
100
AcDbEntity
  8
Sichtbare_Kanten_TC_020513_DIN_
  6
Continuous
 62
     7
100
AcDbCircle
 10
556.9265639544051
 20
143.823784782559
 30
0.0
 40
0.249999999999664
100
AcDbArc
 50
15.00000000010951
 51
90.0
  0
ARC
  5
6E0
330
1F
100
AcDbEntity
  8
Sichtbare_Kanten_TC_020513_DIN_
  6
Continuous
 62
     7
100
AcDbCircle
 10
597.1599266518131
 20
127.296162144973
 30
0.0
 40
2.799999999999997
100
AcDbArc
 50
270.0
 51
0.0
  0
ARC
  5
6E1
330
1F
100
AcDbEntity
  8
Sichtbare_Kanten_TC_020513_DIN_
  6
Continuous
 62
     7
100
AcDbCircle
 10
597.1599266518131
 20
127.296162144973
 30
0.0
 40
1.399999999999991
100
AcDbArc
 50
270.0
 51
0.0
  0
ARC
  5
6E2
330
1F
100
AcDbEntity
  8
Sichtbare_Kanten_TC_020513_DIN_
  6
Continuous
 62
     7
100
AcDbCircle
 10
597.3599266518231
 20
126.575144532557
 30
0.0
 40
0.1000000000001364
100
AcDbArc
 50
180.0
 51
270.0
  0
ARC
  5
6E3
330
1F
100
AcDbEntity
  8
Sichtbare_Kanten_TC_020513_DIN_
  6
Continuous
 62
     7
100
AcDbCircle
 10
597.3599266518231
 20
126.575144532557
 30
0.0
 40
1.5
100
AcDbArc
 50
180.0
 51
206.9141492018855
  0
ARC
  5
6E4
330
1F
100
AcDbEntity
  8
Sichtbare_Kanten_TC_020513_DIN_
  6
Continuous
 62
     7
100
AcDbCircle
 10
549.5599266518229
 20
126.575144532557
 30
0.0
 40
0.1000000000000085
100
AcDbArc
 50
270.0
 51
0.0
  0
ARC
  5
6E5
330
1F
100
AcDbEntity
  8
Sichtbare_Kanten_TC_020513_DIN_
  6
Continuous
 62
     7
100
AcDbCircle
 10
549.5599266518229
 20
126.575144532557
 30
0.0
 40
1.500000000000216
100
AcDbArc
 50
333.0858507981146
 51
0.0
  0
ARC
  5
6E6
330
1F
100
AcDbEntity
  8
Stich_1-Linien_TC_020513_DIN_
  6
DASHED_SPACE
 62
     7
100
AcDbCircle
 10
409.6783611423728
 20
125.712799447564
 30
0.0
 40
48.93394997171635
100
AcDbArc
 50
130.0030516403835
 51
180.0
  0
ARC
  5
6E7
330
1F
100
AcDbEntity
  8
Stich_1-Linien_TC_020513_DIN_
  6
DASHED_SPACE
 62
     7
100
AcDbCircle
 10
478.678361142373
 20
125.712799447564
 30
0.0
 40
48.93394997171595
100
AcDbArc
 50
0.0
 51
49.9969483596165
  0
CIRCLE
  5
6E8
330
1F
100
AcDbEntity
  8
Sichtbare_Kanten_TC_020513_DIN_
  6
Continuous
 62
     7
100
AcDbCircle
 10
481.678361142373
 20
136.712799447564
 30
0.0
 40
4.700000000000045
  0
CIRCLE
  5
6E9
330
1F
100
AcDbEntity
  8
Sichtbare_Kanten_TC_020513_DIN_
  6
Continuous
 62
     7
100
AcDbCircle
 10
406.6783611423728
 20
136.712799447564
 30
0.0
 40
4.700000000000102
  0
CIRCLE
  5
6EA
330
1F
100
AcDbEntity
  8
Sichtbare_Kanten_TC_020513_DIN_
  6
Continuous
 62
     7
100
AcDbCircle
 10
478.678361142373
 20
125.712799447564
 30
0.0
 40
1.75
  0
CIRCLE
  5
6EB
330
1F
100
AcDbEntity
  8
Sichtbare_Kanten_TC_020513_DIN_
  6
Continuous
 62
     7
100
AcDbCircle
 10
409.6783611423728
 20
125.712799447564
 30
0.0
 40
1.75
  0
CIRCLE
  5
6EC
330
1F
100
AcDbEntity
  8
Sichtbare_Kanten_TC_020513_DIN_
  6
Continuous
 62
     7
100
AcDbCircle
 10
573.459926651816
 20
100.1027994475641
 30
0.0
 40
10.3900000000001
  0
CIRCLE
  5
6ED
330
1F
100
AcDbEntity
  8
Sichtbare_Kanten_TC_020513_DIN_
  6
Continuous
 62
     7
100
AcDbCircle
 10
573.459926651816
 20
100.1027994475641
 30
0.0
 40
13.38999999999601
  0
SPLINE
  5
6EE
330
1F
100
AcDbEntity
  8
Sichtbare_Kanten_TC_020513_DIN_
  6
Continuous
 62
     7
100
AcDbSpline
210
0.0
220
0.0
230
1.0
 70
     8
 71
     3
 72
    19
 73
    15
 74
    13
 42
0.000000001
 43
0.0000000001
 44
0.00000001
 40
0.0
 40
0.0
 40
0.0
 40
0.0
 40
0.3221862205370034
 40
0.6443862618344887
 40
0.8094705328398366
 40
0.974556222928445
 40
1.14246328081237
 40
1.310374909567575
 40
1.480895931774035
 40
1.651417687594372
 40
1.82403346266919
 40
1.996661195041381
 40
2.257865073019294
 40
2.518894987889427
 40
2.518894987889427
 40
2.518894987889427
 40
2.518894987889427
 10
559.4006899490901
 20
136.413571017376
 30
0.0
 10
559.4369036119678
 20
136.3121366967374
 30
0.0
 10
559.5093325046907
 20
136.109263709702
 30
0.0
 10
559.6587241511245
 20
135.8815732661938
 30
0.0
 10
559.7990778279607
 20
135.7153970276344
 30
0.0
 10
559.9174249990164
 20
135.5985801928206
 30
0.0
 10
560.0460737688086
 20
135.4918461501708
 30
0.0
 10
560.1848537811367
 20
135.3954331632409
 30
0.0
 10
560.3319879340961
 20
135.3105739689867
 30
0.0
 10
560.4870383478903
 20
135.2375121665617
 30
0.0
 10
560.6481952859426
 20
135.1770102655914
 30
0.0
 10
560.8427688612317
 20
135.1217544749833
 30
0.0
 10
561.0713091356197
 20
135.0790109829214
 30
0.0
 10
561.2454834526324
 20
135.0730662462117
 30
0.0
 10
561.332541601668
 20
135.070094875322
 30
0.0
 11
559.4006899490901
 21
136.413571017376
 31
0.0
 11
559.5209543602862
 21
136.1146723166617
 31
0.0
 11
559.6942375130902
 21
135.8430368679441
 31
0.0
 11
559.8009317258422
 21
135.7170640065698
 31
0.0
 11
559.918328039295
 21
135.6009976852836
 31
0.0
 11
560.0475209194022
 21
135.4937504005686
 31
0.0
 11
560.185388728966
 21
135.397902696383
 31
0.0
 11
560.3330759805345
 21
135.3126624771888
 31
0.0
 11
560.4873050781866
 21
135.2399228397089
 31
0.0
 11
560.6489147694041
 21
135.1792720877013
 31
0.0
 11
560.8149035114633
 21
135.131858253264
 31
0.0
 11
561.0719695985615
 21
135.0855495799186
 31
0.0
 11
561.332541601668
 21
135.070094875322
 31
0.0
  0
SPLINE
  5
6EF
330
1F
100
AcDbEntity
  8
Sichtbare_Kanten_TC_020513_DIN_
  6
Continuous
 62
     7
100
AcDbSpline
210
0.0
220
0.0
230
1.0
 70
     8
 71
     3
 72
    19
 73
    15
 74
    13
 42
0.000000001
 43
0.0000000001
 44
0.00000001
 40
0.0
 40
0.0
 40
0.0
 40
0.0
 40
0.3221862205369609
 40
0.6443862618344463
 40
0.8094705328398677
 40
0.9745562229284561
 40
1.142463280812468
 40
1.310374909567535
 40
1.480895931774037
 40
1.651417687594295
 40
1.824033462669113
 40
1.996661195041398
 40
2.257865073019769
 40
2.518894987889448
 40
2.518894987889448
 40
2.518894987889448
 40
2.518894987889448
 10
559.4006899490901
 20
135.821905450939
 30
0.0
 10
559.4369036119679
 20
135.7204711303005
 30
0.0
 10
559.5093325046904
 20
135.517598143265
 30
0.0
 10
559.6587241511245
 20
135.2899076997568
 30
0.0
 10
559.7990778279608
 20
135.1237314611975
 30
0.0
 10
559.9174249990162
 20
135.0069146263835
 30
0.0
 10
560.046073768809
 20
134.9001805837341
 30
0.0
 10
560.1848537811364
 20
134.8037675968037
 30
0.0
 10
560.3319879340962
 20
134.7189084025499
 30
0.0
 10
560.4870383478901
 20
134.6458466001246
 30
0.0
 10
560.6481952859427
 20
134.5853446991544
 30
0.0
 10
560.8427688612318
 20
134.5300889085464
 30
0.0
 10
561.0713091356199
 20
134.4873454164844
 30
0.0
 10
561.2454834526326
 20
134.4814006797747
 30
0.0
 10
561.332541601668
 20
134.478429308885
 30
0.0
 11
559.4006899490901
 21
135.821905450939
 31
0.0
 11
559.520954360286
 21
135.5230067502247
 31
0.0
 11
559.6942375130901
 21
135.251371301507
 31
0.0
 11
559.8009317258422
 21
135.1253984401328
 31
0.0
 11
559.918328039295
 21
135.0093321188467
 31
0.0
 11
560.0475209194024
 21
134.9020848341316
 31
0.0
 11
560.1853887289659
 21
134.8062371299459
 31
0.0
 11
560.3330759805345
 21
134.7209969107518
 31
0.0
 11
560.4873050781865
 21
134.6482572732719
 31
0.0
 11
560.648914769404
 21
134.5876065212643
 31
0.0
 11
560.8149035114633
 21
134.5401926868271
 31
0.0
 11
561.071969598562
 21
134.4938840134816
 31
0.0
 11
561.332541601668
 21
134.478429308885
 31
0.0
  0
SPLINE
  5
6F0
330
1F
100
AcDbEntity
  8
Sichtbare_Kanten_TC_020513_DIN_
  6
Continuous
 62
     7
100
AcDbSpline
210
0.0
220
0.0
230
1.0
 70
     8
 71
     3
 72
    19
 73
    15
 74
    13
 42
0.000000001
 43
0.0000000001
 44
0.00000001
 40
0.0
 40
0.0
 40
0.0
 40
0.0
 40
0.3474606674149653
 40
0.6949175350302395
 40
0.8665696488951348
 40
1.038221191656266
 40
1.207484861390577
 40
1.376745209810001
 40
1.543251855853575
 40
1.70975105716001
 40
1.87344393453352
 40
2.037147336109574
 40
2.27818813768839
 40
2.518986528947816
 40
2.518986528947816
 40
2.518986528947816
 40
2.518986528947816
 10
585.587311701958
 20
135.070094875322
 30
0.0
 10
585.7032434718709
 20
135.0753518377138
 30
0.0
 10
585.9351057427198
 20
135.0858657196819
 30
0.0
 10
586.2171775488907
 20
135.1569390373946
 30
0.0
 10
586.4329616507248
 20
135.2375060132134
 30
0.0
 10
586.5876983990382
 20
135.3104998264583
 30
0.0
 10
586.7351751878964
 20
135.3955459965043
 30
0.0
 10
586.8736032942167
 20
135.4917057233702
 30
0.0
 10
587.0026135820478
 20
135.5987374177387
 30
0.0
 10
587.1205348721362
 20
135.7152447293134
 30
0.0
 10
587.2271985976779
 20
135.8409811944491
 30
0.0
 10
587.3360737680081
 20
135.9962173528982
 30
0.0
 10
587.4412074842801
 20
136.1852398081487
 30
0.0
 10
587.4931867857899
 20
136.3374861439982
 30
0.0
 10
587.5191633545371
 20
136.413571017376
 30
0.0
 11
585.587311701958
 21
135.070094875322
 31
0.0
 11
585.9336910212485
 21
135.0974861615608
 31
0.0
 11
586.2713519886099
 21
135.1794089701168
 31
0.0
 11
586.4320606077579
 21
135.239718074518
 31
0.0
 11
586.5873117019585
 21
135.3129393149524
 31
0.0
 11
586.733909009918
 21
135.3975526671972
 31
0.0
 11
586.8728869213317
 21
135.494166361365
 31
0.0
 11
587.0009964925808
 21
135.6005261336972
 31
0.0
 11
587.1194005881961
 21
135.7175836172558
 31
0.0
 11
587.225196893531
 21
135.8424935856285
 31
0.0
 11
587.3193625095271
 21
135.9764026623584
 31
0.0
 11
587.4346169272551
 21
136.1881031306741
 31
0.0
 11
587.5191633545371
 21
136.413571017376
 31
0.0
  0
SPLINE
  5
6F1
330
1F
100
AcDbEntity
  8
Sichtbare_Kanten_TC_020513_DIN_
  6
Continuous
 62
     7
100
AcDbSpline
210
0.0
220
0.0
230
1.0
 70
     8
 71
     3
 72
    19
 73
    15
 74
    13
 42
0.000000001
 43
0.0000000001
 44
0.00000001
 40
0.0
 40
0.0
 40
0.0
 40
0.0
 40
0.3474606674143234
 40
0.6949175350295105
 40
0.8665696488945988
 40
1.038221191655869
 40
1.207484861390041
 40
1.376745209809579
 40
1.543251855853307
 40
1.709751057159804
 40
1.8734439345333
 40
2.037147336109494
 40
2.278188137688288
 40
2.518986528947022
 40
2.518986528947022
 40
2.518986528947022
 40
2.518986528947022
 10
585.5873117019589
 20
134.478429308885
 30
0.0
 10
585.7032434718716
 20
134.483686271277
 30
0.0
 10
585.9351057427202
 20
134.4942001532457
 30
0.0
 10
586.217177548891
 20
134.5652734709577
 30
0.0
 10
586.4329616507252
 20
134.6458404467765
 30
0.0
 10
586.5876983990386
 20
134.7188342600212
 30
0.0
 10
586.7351751878966
 20
134.8038804300678
 30
0.0
 10
586.8736032942167
 20
134.900040156934
 30
0.0
 10
587.0026135820485
 20
135.0070718513022
 30
0.0
 10
587.1205348721371
 20
135.1235791628766
 30
0.0
 10
587.227198597679
 20
135.2493156280122
 30
0.0
 10
587.336073768009
 20
135.4045517864614
 30
0.0
 10
587.4412074842803
 20
135.5935742417121
 30
0.0
 10
587.49318678579
 20
135.7458205775614
 30
0.0
 10
587.5191633545371
 20
135.821905450939
 30
0.0
 11
585.5873117019589
 21
134.478429308885
 31
0.0
 11
585.9336910212487
 21
134.5058205951242
 31
0.0
 11
586.2713519886101
 21
134.58774340368
 31
0.0
 11
586.4320606077583
 21
134.6480525080811
 31
0.0
 11
586.587311701959
 21
134.7212737485155
 31
0.0
 11
586.7339090099182
 21
134.8058871007607
 31
0.0
 11
586.8728869213319
 21
134.9025007949287
 31
0.0
 11
587.0009964925814
 21
135.0088605672607
 31
0.0
 11
587.119400588197
 21
135.125918050819
 31
0.0
 11
587.225196893532
 21
135.2508280191916
 31
0.0
 11
587.3193625095281
 21
135.3847370959217
 31
0.0
 11
587.4346169272555
 21
135.5964375642376
 31
0.0
 11
587.5191633545371
 21
135.821905450939
 31
0.0
  0
LWPOLYLINE
  5
6F2
330
1F
100
AcDbEntity
  8
Sichtbare_Kanten_TC_020513_DIN_
  6
Continuous
 62
     7
100
AcDbPolyline
 90
       25
 70
     0
 43
0.0
 10
508.7073366291279
 20
141.330276506928
 10
508.6862270481349
 20
141.376640873937
 10
508.665975774026
 20
141.423361974744
 10
508.6465804226159
 20
141.470428186444
 10
508.6280505306479
 20
141.517827290086
 10
508.610386098122
 20
141.565547662763
 10
508.5935942775959
 20
141.613577383546
 10
508.5776774532551
 20
141.66190393546
 10
508.5626403934721
 20
141.710515993623
 10
508.5484878666159
 20
141.759401339082
 10
508.5352222568749
 20
141.808547752885
 10
508.5228483326191
 20
141.857943314103
 10
508.5113684780361
 20
141.907576697854
 10
508.500796998238
 20
141.957410949258
 10
508.491136277413
 20
142.007407921342
 10
508.482388699746
 20
142.057556289224
 10
508.474554265237
 20
142.107842939881
 10
508.467640126443
 20
142.158254760293
 10
508.4616415149931
 20
142.208780425576
 10
508.456560815072
 20
142.259406822709
 10
508.452402795052
 20
142.31012083867
 10
508.449165070748
 20
142.360910552529
 10
508.4468524105309
 20
142.411763447312
 10
508.445462430215
 20
142.462666409997
 10
508.4449975139851
 20
142.513607519654
  0
LWPOLYLINE
  5
6F3
330
1F
100
AcDbEntity
  8
Sichtbare_Kanten_TC_020513_DIN_
  6
Continuous
 62
     7
100
AcDbPolyline
 90
       25
 70
     0
 43
0.0
 10
509.8449985630271
 20
142.513607519654
 10
509.845229829049
 20
142.488137262849
 10
509.8459260113
 20
142.462685483483
 10
509.8470823414079
 20
142.437259334115
 10
509.848701203561
 20
142.411864179162
 10
509.85078021357
 20
142.386507171182
 10
509.8533193714379
 20
142.361194270638
 10
509.856318677163
 20
142.335931437997
 10
509.85977574656
 20
142.310725229768
 10
509.8636929638151
 20
142.285582202462
 10
509.8680679447409
 20
142.260507720498
 10
509.872898305154
 20
142.235509532479
 10
509.878184045052
 20
142.210592406777
 10
509.8839227802509
 20
142.185775416879
 10
509.8901097423791
 20
142.16107763627
 10
509.8967425472499
 20
142.136504429368
 10
509.903818810677
 20
142.112061756638
 10
509.9113385326621
 20
142.087755578546
 10
509.9192969448329
 20
142.0635924516
 10
509.9276916630031
 20
142.03957774022
 10
509.9365250713579
 20
142.01571740487
 10
509.945790017342
 20
141.992018002061
 10
509.9554865009541
 20
141.968484896211
 10
509.965612138009
 20
141.945124047784
 10
509.976166928506
 20
141.921942013291
  0
LWPOLYLINE
  5
6F4
330
1F
100
AcDbEntity
  8
Sichtbare_Kanten_TC_020513_DIN_
  6
Continuous
 62
     7
100
AcDbPolyline
 90
       25
 70
     0
 43
0.0
 10
508.9356796390771
 20
154.073784726647
 10
509.0013925678491
 20
154.165602105645
 10
509.070824826455
 20
154.254781383065
 10
509.143902505135
 20
154.341203349618
 10
509.2205111629721
 20
154.42470588067
 10
509.300328934884
 20
154.50493492463
 10
509.383208001351
 20
154.581770080117
 10
509.469036305642
 20
154.655127900628
 10
509.5577017910241
 20
154.724929708032
 10
509.6490947849511
 20
154.791092055825
 10
509.7431008465051
 20
154.853533881692
 10
509.8396103031389
 20
154.912172931222
 10
509.9385087139369
 20
154.966928142098
 10
510.03968640635
 20
155.017717259912
 10
510.1429526455161
 20
155.064425843743
 10
510.247954571938
 20
155.106889384774
 10
510.3545443660971
 20
155.145057815103
 10
510.4625932819599
 20
155.178885835198
 10
510.571965420937
 20
155.208330529717
 10
510.682515347695
 20
155.233343022851
 10
510.793933118081
 20
155.253850596932
 10
510.906027997231
 20
155.269828218011
 10
511.0186640865562
 20
155.281259196786
 10
511.131700719094
 20
155.288129228143
 10
511.2449996120691
 20
155.290421622781
  0
LWPOLYLINE
  5
6F5
330
1F
100
AcDbEntity
  8
Sichtbare_Kanten_TC_020513_DIN_
  6
Continuous
 62
     7
100
AcDbPolyline
 90
       25
 70
     0
 43
0.0
 10
511.2449996120691
 20
153.890421765832
 10
511.173352444863
 20
153.888587134866
 10
511.102039063668
 20
153.883103507546
 10
511.0311929828882
 20
153.873998302011
 10
510.960950101113
 20
153.861302512673
 10
510.8914510853052
 20
153.845044749764
 10
510.8228294498682
 20
153.82525243142
 10
510.7552258617641
 20
153.801956552056
 10
510.688776219582
 20
153.775185721902
 10
510.6237356312031
 20
153.745026963738
 10
510.5604521877519
 20
153.711648362664
 10
510.499042714333
 20
153.675136941461
 10
510.43962403605
 20
153.635572570352
 10
510.382308209634
 20
153.59303869584
 10
510.3272096760029
 20
153.547617572335
 10
510.274440491891
 20
153.499390262155
 10
510.224115098214
 20
153.448440211801
 10
510.176400387978
 20
153.394910472421
 10
510.1315657741779
 20
153.339107411889
 10
510.0896970875019
 20
153.281168120889
 10
510.0508706218959
 20
153.221213000802
 10
510.015155518746
 20
153.159363645104
 10
509.9826233036281
 20
153.095738070992
 10
509.9533478863
 20
153.030459064035
 10
509.9274031765219
 20
152.96364583352
  0
LWPOLYLINE
  5
6F6
330
1F
100
AcDbEntity
  8
Sichtbare_Kanten_TC_020513_DIN_
  6
Continuous
 62
     7
100
AcDbPolyline
 90
       25
 70
     0
 43
0.0
 10
509.9274031765219
 20
152.96364583352
 10
509.922508443093
 20
152.949754375009
 10
509.9172107822651
 20
152.934106963662
 10
509.9115936405419
 20
152.916798966912
 10
509.9057476169819
 20
152.897930520562
 10
509.8997561580891
 20
152.877599376229
 10
509.8937122471091
 20
152.855903285531
 10
509.8876993305439
 20
152.832942384271
 10
509.881805623269
 20
152.808813231973
 10
509.876119340157
 20
152.783613580255
 10
509.8707286960839
 20
152.757444757012
 10
509.865721905923
 20
152.730402129678
 10
509.861239636635
 20
152.703155654458
 10
509.857448781228
 20
152.677268165139
 10
509.854299271798
 20
152.652831452874
 10
509.8517315037011
 20
152.629855054406
 10
509.8496834881059
 20
152.608348506478
 10
509.8481003887409
 20
152.58832373002
 10
509.8469226009599
 20
152.569787877587
 10
509.846085751748
 20
152.552751678018
 10
509.845537389016
 20
152.537225860146
 10
509.845213139748
 20
152.523219960717
 10
509.8450533993
 20
152.510744708566
 10
509.8450033313991
 20
152.499808448342
 10
509.8449985630271
 20
152.490421908883
  0
LWPOLYLINE
  5
6F7
330
1F
100
AcDbEntity
  8
Sichtbare_Kanten_TC_020513_DIN_
  6
Continuous
 62
     7
100
AcDbPolyline
 90
       25
 70
     0
 43
0.0
 10
507.5282446987389
 20
154.294779675988
 10
507.5082986004111
 20
154.303708451775
 10
507.48832627604
 20
154.31263603547
 10
507.468334878182
 20
154.321563619164
 10
507.448319638467
 20
154.330491202859
 10
507.428285325265
 20
154.339417594461
 10
507.408231938576
 20
154.348345178155
 10
507.388157094216
 20
154.357271569757
 10
507.368065560555
 20
154.366199153451
 10
507.347957337594
 20
154.375125545052
 10
507.327832425332
 20
154.384053128747
 10
507.307690823769
 20
154.392981904534
 10
507.287532532906
 20
154.401910680322
 10
507.2673647052999
 20
154.410838264016
 10
507.247184956765
 20
154.419767039804
 10
507.2269956714869
 20
154.428694623498
 10
507.206799233651
 20
154.437622207192
 10
507.186593259072
 20
154.446548598794
 10
507.166380131936
 20
154.455476182488
 10
507.146159852242
 20
154.46440257409
 10
507.125937188363
 20
154.473328965692
 10
507.105707371926
 20
154.482256549386
 10
507.085472787118
 20
154.491184133081
 10
507.065238202309
 20
154.500112908868
 10
507.0449988491291
 20
154.509040492562
  0
LWPOLYLINE
  5
6F8
330
1F
100
AcDbEntity
  8
Sichtbare_Kanten_TC_020513_DIN_
  6
Continuous
 62
     7
100
AcDbPolyline
 90
       25
 70
     0
 43
0.0
 10
509.8449985630271
 20
153.397994416741
 10
509.844955647683
 20
153.411269563226
 10
509.8448269016501
 20
153.42454470971
 10
509.8446147091149
 20
153.437818664102
 10
509.844314301705
 20
153.451092618493
 10
509.8439304477929
 20
153.464365380792
 10
509.8434607631921
 20
153.477639335183
 10
509.842905247903
 20
153.490913289575
 10
509.842263901925
 20
153.504186051873
 10
509.841536725259
 20
153.517460006265
 10
509.84072610209
 20
153.530733960656
 10
509.8398296482319
 20
153.544009107141
 10
509.838847363686
 20
153.557283061532
 10
509.8377792484521
 20
153.570558208016
 10
509.836625302529
 20
153.583833354501
 10
509.8353879101039
 20
153.597107308892
 10
509.834064686989
 20
153.610381263284
 10
509.832658017373
 20
153.623654025582
 10
509.831163132882
 20
153.636927979974
 10
509.8295848018879
 20
153.650201934365
 10
509.827923024392
 20
153.663474696664
 10
509.826173032021
 20
153.676748651055
 10
509.8243395931479
 20
153.690022605447
 10
509.8224227077719
 20
153.703297751931
 10
509.8204199917079
 20
153.716572898416
  0
LWPOLYLINE
  5
6F9
330
1F
100
AcDbEntity
  8
Sichtbare_Kanten_TC_020513_DIN_
  6
Continuous
 62
     7
100
AcDbPolyline
 90
       25
 70
     0
 43
0.0
 10
509.8204199917079
 20
153.716572898416
 10
509.8186699993371
 20
153.727934735803
 10
509.8164956218959
 20
153.741547244576
 10
509.8137800342799
 20
153.757136243371
 10
509.810411179757
 20
153.774433511285
 10
509.806279385781
 20
153.793167251138
 10
509.801265443062
 20
153.813066857842
 10
509.7952644474269
 20
153.833862918405
 10
509.7881548053981
 20
153.855282443551
 10
509.779831612801
 20
153.877056020288
 10
509.7701756603481
 20
153.898913043527
 10
509.759079659676
 20
153.920582908181
 10
509.7464267856831
 20
153.941795009164
 10
509.7321025974511
 20
153.962277549294
 10
509.7160308010341
 20
153.981719392327
 10
509.6985451824421
 20
153.999406474618
 10
509.6797744877099
 20
154.015170711068
 10
509.6597330219511
 20
154.0290252147
 10
509.638437474465
 20
154.040986674813
 10
509.615902150369
 20
154.051069396524
 10
509.5921413547751
 20
154.059285300759
 10
509.567171776986
 20
154.065651076821
 10
509.5410053379289
 20
154.070179837731
 10
509.5136587269069
 20
154.072885888604
 10
509.4851462490319
 20
154.073784726647
  0
LWPOLYLINE
  5
6FA
330
1F
100
AcDbEntity
  8
Sichtbare_Kanten_TC_020513_DIN_
  6
Continuous
 62
     7
100
AcDbPolyline
 90
       25
 70
     0
 43
0.0
 10
508.5374967701191
 20
154.073784726647
 10
508.48973914454
 20
154.074323552636
 10
508.441449845528
 20
154.075943606881
 10
508.3926598675009
 20
154.078649657754
 10
508.3434049732441
 20
154.082446473626
 10
508.293720925546
 20
154.087336438684
 10
508.2436434871911
 20
154.093325513391
 10
508.193201268411
 20
154.100417274026
 10
508.142434800362
 20
154.108616488961
 10
508.0913750774621
 20
154.117926734475
 10
508.0400888569111
 20
154.128348010568
 10
507.9898373729941
 20
154.139629977731
 10
507.9413144237751
 20
154.151543754128
 10
507.8946153766869
 20
154.163953441171
 10
507.8498332149741
 20
154.176725524453
 10
507.807063306069
 20
154.189725297479
 10
507.7663986332179
 20
154.20281805375
 10
507.727934563851
 20
154.215870278863
 10
507.6917688495871
 20
154.228746074227
 10
507.6579897053
 20
154.241311925439
 10
507.6266948826069
 20
154.253431933908
 10
507.5979797489399
 20
154.264973777322
 10
507.5719372875451
 20
154.275801557092
 10
507.548660481667
 20
154.285781758813
 10
507.5282446987389
 20
154.294779675988
  0
LWPOLYLINE
  5
6FB
330
1F
100
AcDbEntity
  8
Sichtbare_Kanten_TC_020513_DIN_
  6
Continuous
 62
     7
100
AcDbPolyline
 90
       25
 70
     0
 43
0.0
 10
378.38055535624
 20
141.921942013291
 10
378.3911125309227
 20
141.945124047784
 10
378.4012310154197
 20
141.968484896211
 10
378.4109298832176
 20
141.992018002061
 10
378.420199597573
 20
142.01571740487
 10
378.429030621743
 20
142.03957774022
 10
378.4374229557273
 20
142.0635924516
 10
378.4453861362693
 20
142.087755578546
 10
378.4529010898826
 20
142.112061756638
 10
378.4599773533103
 20
142.136504429368
 10
378.4666149265525
 20
142.16107763627
 10
378.4727947361228
 20
142.185775416879
 10
378.4785358555076
 20
142.210592406777
 10
378.4838287479637
 20
142.235509532479
 10
378.4886543400047
 20
142.260507720498
 10
378.493031705117
 20
142.285582202462
 10
378.4969417698142
 20
142.310725229768
 10
378.5004036075828
 20
142.335931437997
 10
378.5033981449363
 20
142.361194270638
 10
378.5059444553611
 20
142.386507171182
 10
378.5080234653709
 20
142.411864179162
 10
378.5096447117088
 20
142.437259334115
 10
378.5107986576316
 20
142.462685483483
 10
378.5114948398826
 20
142.488137262849
 10
378.5117237217186
 20
142.513607519654
  0
LWPOLYLINE
  5
6FC
330
1F
100
AcDbEntity
  8
Sichtbare_Kanten_TC_020513_DIN_
  6
Continuous
 62
     7
100
AcDbPolyline
 90
       25
 70
     0
 43
0.0
 10
379.9117271549461
 20
142.513607519654
 10
379.9112598545311
 20
142.462666409997
 10
379.9098674900291
 20
142.411763447312
 10
379.9075595981834
 20
142.360910552529
 10
379.9043171055076
 20
142.31012083867
 10
379.9001590854881
 20
142.259406822709
 10
379.8950855381248
 20
142.208780425576
 10
379.8890869266746
 20
142.158254760293
 10
379.8821632511375
 20
142.107842939881
 10
379.8743335849998
 20
142.057556289224
 10
379.8655883915184
 20
142.007407921342
 10
379.8559276706932
 20
141.957410949258
 10
379.8453514225242
 20
141.907576697854
 10
379.8338787204978
 20
141.857943314103
 10
379.8215000278709
 20
141.808547752885
 10
379.8082344181297
 20
141.759401339082
 10
379.7940818912742
 20
141.710515993623
 10
379.7790424473045
 20
141.66190393546
 10
379.7631256229637
 20
141.613577383546
 10
379.7463314182517
 20
141.565547662763
 10
379.7286693699119
 20
141.517827290086
 10
379.7101394779441
 20
141.470428186444
 10
379.6907512790916
 20
141.423361974744
 10
379.6704952366111
 20
141.376640873937
 10
379.6493808872459
 20
141.330276506928
  0
LWPOLYLINE
  5
6FD
330
1F
100
AcDbEntity
  8
Sichtbare_Kanten_TC_020513_DIN_
  6
Continuous
 62
     7
100
AcDbPolyline
 90
       25
 70
     0
 43
0.0
 10
378.4293167240379
 20
152.96364583352
 10
378.4033767826316
 20
153.03045310357
 10
378.3741085178611
 20
153.09571661332
 10
378.3415977604148
 20
153.159315961389
 10
378.3059017307517
 20
153.221131938485
 10
378.2671062595603
 20
153.28104533532
 10
378.2252876407859
 20
153.338936942605
 10
378.1805126316307
 20
153.394687551049
 10
378.1328575260398
 20
153.448176759271
 10
378.0824844486473
 20
153.49919475892
 10
378.0296795017478
 20
153.547472137002
 10
377.9745571262596
 20
153.592924254922
 10
377.9172412998436
 20
153.635472434548
 10
377.8578369266746
 20
153.675036805657
 10
377.7964679844139
 20
153.711539882211
 10
377.7332393772361
 20
153.744900601892
 10
377.6682750828025
 20
153.775041478662
 10
377.6017658359764
 20
153.801854032067
 10
377.5340931064842
 20
153.825188058404
 10
377.4654190189598
 20
153.845006602792
 10
377.3958675510642
 20
153.861283439187
 10
377.3255817539451
 20
153.873991149453
 10
377.2547046787498
 20
153.883101123361
 10
377.1833793766258
 20
153.888587134866
 10
377.111720288491
 20
153.890421765832
  0
LWPOLYLINE
  5
6FE
330
1F
100
AcDbEntity
  8
Sichtbare_Kanten_TC_020513_DIN_
  6
Continuous
 62
     7
100
AcDbPolyline
 90
       25
 70
     0
 43
0.0
 10
377.111720288491
 20
155.290421622781
 10
377.2250549442527
 20
155.28812803605
 10
377.3380176670311
 20
155.281262773065
 10
377.4504749424217
 20
155.269854444055
 10
377.5623027927635
 20
155.253930467156
 10
377.6733486301658
 20
155.233517068414
 10
377.7834884769676
 20
155.208642858056
 10
377.8925888187644
 20
155.17933525422
 10
378.0004970676658
 20
155.145620482949
 10
378.1070987827537
 20
155.10752596238
 10
378.2122318393943
 20
155.065082686929
 10
378.315505231118
 20
155.018446820764
 10
378.416651929116
 20
154.967749494103
 10
378.5155670292137
 20
154.913069385079
 10
378.6121265537498
 20
154.85448397973
 10
378.7062160618064
 20
154.792070764092
 10
378.7977211124656
 20
154.725908416299
 10
378.8865368015525
 20
154.656074422387
 10
378.9725296146629
 20
154.582645076302
 10
379.0555946476219
 20
154.505701440362
 10
379.1356079227684
 20
154.425334113625
 10
379.2122738010642
 20
154.341819661645
 10
379.2854683048484
 20
154.255316632775
 10
379.3550865299461
 20
154.165935891656
 10
379.4210426456688
 20
154.073784726647
  0
LWPOLYLINE
  5
6FF
330
1F
100
AcDbEntity
  8
Sichtbare_Kanten_TC_020513_DIN_
  6
Continuous
 62
     7
100
AcDbPolyline
 90
       25
 70
     0
 43
0.0
 10
378.5117237217186
 20
152.490421908883
 10
378.5117237217186
 20
152.499808448342
 10
378.5116665012596
 20
152.510744708566
 10
378.5115139133689
 20
152.523219960717
 10
378.5111896641014
 20
152.537225860146
 10
378.5106365329978
 20
152.552751678018
 10
378.5097972995994
 20
152.569787877587
 10
378.5086242801902
 20
152.58832373002
 10
378.507041180825
 20
152.608348506478
 10
378.5049907810447
 20
152.629855054406
 10
378.5024253971336
 20
152.652831452874
 10
378.4992782718894
 20
152.677268165139
 10
378.4954826481102
 20
152.703155654458
 10
378.491000378823
 20
152.730402129678
 10
378.4859935886619
 20
152.757444757012
 10
378.4806053287742
 20
152.783613580255
 10
378.4749118931053
 20
152.808813231973
 10
378.469027722573
 20
152.832942384271
 10
378.4630100376365
 20
152.855903285531
 10
378.4569637424705
 20
152.877599376229
 10
378.4509746677635
 20
152.897930520562
 10
378.4451286442039
 20
152.916798966912
 10
378.4395115024803
 20
152.934106963662
 10
378.4342090732811
 20
152.949754375009
 10
378.4293167240379
 20
152.96364583352
  0
LWPOLYLINE
  5
700
330
1F
100
AcDbEntity
  8
Sichtbare_Kanten_TC_020513_DIN_
  6
Continuous
 62
     7
100
AcDbPolyline
 90
       25
 70
     0
 43
0.0
 10
378.8715736515281
 20
154.073784726647
 10
378.8459674961326
 20
154.07306112626
 10
378.8212768680809
 20
154.07088317254
 10
378.7975399143455
 20
154.067240136651
 10
378.7747470981834
 20
154.062123673944
 10
378.752927029824
 20
154.055521863488
 10
378.7320797092674
 20
154.047427552728
 10
378.7122242099998
 20
154.037830012826
 10
378.6933700687644
 20
154.026718514947
 10
378.6755363590477
 20
154.01408471444
 10
378.6587326175926
 20
153.999919074563
 10
378.6429683811424
 20
153.984208482293
 10
378.6282341129539
 20
153.966930287866
 10
378.6145107395408
 20
153.948058265237
 10
378.6017982609031
 20
153.927567380456
 10
378.5900871402977
 20
153.905436175851
 10
378.5793487674949
 20
153.881638425378
 10
378.569878781533
 20
153.857068198709
 10
378.5618297703025
 20
153.832837718514
 10
378.5550968296287
 20
153.809339183358
 10
378.5495273716209
 20
153.786965983895
 10
378.5449878818748
 20
153.766111510781
 10
378.5413639194725
 20
153.747165578393
 10
378.5385124332664
 20
153.730521577386
 10
378.5362999088523
 20
153.716572898416
  0
LWPOLYLINE
  5
701
330
1F
100
AcDbEntity
  8
Sichtbare_Kanten_TC_020513_DIN_
  6
Continuous
 62
     7
100
AcDbPolyline
 90
       25
 70
     0
 43
0.0
 10
378.5362999088523
 20
153.716572898416
 10
378.5342971927879
 20
153.703297751931
 10
378.5323803074119
 20
153.690022605447
 10
378.5305492527244
 20
153.676748651055
 10
378.5288040287254
 20
153.663474696664
 10
378.5271350986717
 20
153.650201934365
 10
378.5255615360496
 20
153.636927979974
 10
378.5240642673728
 20
153.623654025582
 10
378.5226528293846
 20
153.610381263284
 10
378.5213367588279
 20
153.597107308892
 10
378.5200969822166
 20
153.583833354501
 10
378.5189430362938
 20
153.570558208016
 10
378.5178749210594
 20
153.557283061532
 10
378.5168926365135
 20
153.544009107141
 10
378.5159961826561
 20
153.530733960656
 10
378.5151855594871
 20
153.517460006265
 10
378.5144607670066
 20
153.504186051873
 10
378.5138218052146
 20
153.490913289575
 10
378.513259137368
 20
153.477639335183
 10
378.5127918369529
 20
153.464365380792
 10
378.5124103672264
 20
153.451092618493
 10
378.5121051914451
 20
153.437818664102
 10
378.5118953830955
 20
153.42454470971
 10
378.5117618686912
 20
153.411269563226
 10
378.5117237217186
 20
153.397994416741
  0
LWPOLYLINE
  5
702
330
1F
100
AcDbEntity
  8
Sichtbare_Kanten_TC_020513_DIN_
  6
Continuous
 62
     7
100
AcDbPolyline
 90
       25
 70
     0
 43
0.0
 10
381.3117210514305
 20
154.509040492562
 10
381.2914840824363
 20
154.500112908868
 10
381.2712471134422
 20
154.491184133081
 10
381.2510196811912
 20
154.482256549386
 10
381.2307827121971
 20
154.473328965692
 10
381.2105648166892
 20
154.46440257409
 10
381.1903469211814
 20
154.455476182488
 10
381.1701290256736
 20
154.446548598794
 10
381.149920666909
 20
154.437622207192
 10
381.1297218448875
 20
154.428694623498
 10
381.1095420963523
 20
154.419767039804
 10
381.0893623478172
 20
154.410838264016
 10
381.0691921360252
 20
154.401910680322
 10
381.0490314609764
 20
154.392981904534
 10
381.0288898594139
 20
154.384053128747
 10
381.0087673313377
 20
154.375125545052
 10
380.9886543400047
 20
154.366199153451
 10
380.968560422158
 20
154.357271569757
 10
380.9484951145408
 20
154.348345178155
 10
380.9284393436668
 20
154.339417594461
 10
380.9084026462791
 20
154.330491202859
 10
380.8883850223777
 20
154.321563619164
 10
380.8683960087059
 20
154.31263603547
 10
380.8484260685203
 20
154.303708451775
 10
380.8284752018211
 20
154.294779675988
  0
LWPOLYLINE
  5
703
330
1F
100
AcDbEntity
  8
Sichtbare_Kanten_TC_020513_DIN_
  6
Continuous
 62
     7
100
AcDbPolyline
 90
       25
 70
     0
 43
0.0
 10
380.8284752018211
 20
154.294779675988
 10
380.8079902775047
 20
154.285749572305
 10
380.7846347934959
 20
154.275735991983
 10
380.7585041172264
 20
154.264872449426
 10
380.7296936161277
 20
154.25329722741
 10
380.6982986576316
 20
154.241141456155
 10
380.6644241459129
 20
154.228544610528
 10
380.6281463749168
 20
154.215637820748
 10
380.5895702488182
 20
154.202559369592
 10
380.5487911350486
 20
154.189443963555
 10
380.5059044010398
 20
154.176425117043
 10
380.4610054142234
 20
154.163639920739
 10
380.4141800052879
 20
154.151221889047
 10
380.365533078408
 20
154.139308112649
 10
380.3151600010154
 20
154.128033298043
 10
380.2640049106834
 20
154.117666858224
 10
380.2130977756736
 20
154.10841025689
 10
380.1624958164451
 20
154.100259917764
 10
380.112208569741
 20
154.093208688287
 10
380.0622837192771
 20
154.087255376367
 10
380.012749875283
 20
154.082394021539
 10
379.9636356479881
 20
154.078621047524
 10
379.9149982578514
 20
154.075931685952
 10
379.866847241616
 20
154.07432116845
 10
379.8192207462547
 20
154.073784726647
  0
LWPOLYLINE
  5
704
330
1F
100
AcDbEntity
  8
Sichtbare_Kanten_TC_020513_DIN_
  6
Continuous
 62
     7
100
AcDbPolyline
 90
       25
 70
     0
 43
0.0
 10
589.147709416249
 20
141.921942013291
 10
589.1575370300791
 20
141.945124047784
 10
589.167361067631
 20
141.968484896211
 10
589.177182720997
 20
141.992018002061
 10
589.1870007980849
 20
142.01571740487
 10
589.196817683079
 20
142.03957774022
 10
589.2066345680739
 20
142.0635924516
 10
589.2164502609751
 20
142.087755578546
 10
589.22626714597
 20
142.112061756638
 10
589.236085223057
 20
142.136504429368
 10
589.2459068764231
 20
142.16107763627
 10
589.255730913975
 20
142.185775416879
 10
589.2655597198991
 20
142.210592406777
 10
589.275387333729
 20
142.235509532479
 10
589.2852113712811
 20
142.260507720498
 10
589.295033024647
 20
142.285582202462
 10
589.304851101735
 20
142.310725229768
 10
589.3146679867291
 20
142.335931437997
 10
589.324484871724
 20
142.361194270638
 10
589.334300564625
 20
142.386507171182
 10
589.34411744962
 20
142.411864179162
 10
589.3539355267069
 20
142.437259334115
 10
589.363757180073
 20
142.462685483483
 10
589.3735812176251
 20
142.488137262849
 10
589.3834088314561
 20
142.513607519654
  0
LWPOLYLINE
  5
705
330
1F
100
AcDbEntity
  8
Sichtbare_Kanten_TC_020513_DIN_
  6
Continuous
 62
     7
100
AcDbPolyline
 90
       25
 70
     0
 43
0.0
 10
589.3834088314561
 20
142.513607519654
 10
589.373581217626
 20
142.462666409997
 10
589.3637571800739
 20
142.411763447312
 10
589.353935526708
 20
142.360910552529
 10
589.34411744962
 20
142.31012083867
 10
589.3343005646259
 20
142.259406822709
 10
589.324484871724
 20
142.208780425576
 10
589.31466798673
 20
142.158254760293
 10
589.304851101735
 20
142.107842939881
 10
589.2950330246481
 20
142.057556289224
 10
589.285211371282
 20
142.007407921342
 10
589.2753873337299
 20
141.957410949258
 10
589.2655597198991
 20
141.907576697854
 10
589.2557309139761
 20
141.857943314103
 10
589.245906876424
 20
141.808547752885
 10
589.2360852230579
 20
141.759401339082
 10
589.22626714597
 20
141.710515993623
 10
589.216450260976
 20
141.66190393546
 10
589.2066345680739
 20
141.613577383546
 10
589.1968176830801
 20
141.565547662763
 10
589.1870007980849
 20
141.517827290086
 10
589.177182720998
 20
141.470428186444
 10
589.1673610676321
 20
141.423361974744
 10
589.15753703008
 20
141.376640873937
 10
589.147709416249
 20
141.330276506928
  0
LWPOLYLINE
  5
706
330
1F
100
AcDbEntity
  8
Sichtbare_Kanten_TC_020513_DIN_
  6
Continuous
 62
     7
100
AcDbPolyline
 90
       25
 70
     0
 43
0.0
 10
595.833123730519
 20
154.073784726647
 10
595.7865558136491
 20
154.07306112626
 10
595.739551590779
 20
154.07088317254
 10
595.6921730507399
 20
154.067240136651
 10
595.644482182362
 20
154.062123673944
 10
595.596540974477
 20
154.055521863488
 10
595.5484138000991
 20
154.047427552728
 10
595.5001578796889
 20
154.037830012826
 10
595.451837586262
 20
154.026718514947
 10
595.4035149086501
 20
154.01408471444
 10
595.355251835683
 20
153.999919074563
 10
595.3071127403759
 20
153.984208482293
 10
595.259190605977
 20
153.966930287866
 10
595.211585568288
 20
153.948058265237
 10
595.164388226369
 20
153.927567380456
 10
595.117691563466
 20
153.905436175851
 10
595.071593331196
 20
153.881638425378
 10
595.0277982224011
 20
153.857068198709
 10
594.987865494588
 20
153.832837718514
 10
594.9518023003129
 20
153.809339183358
 10
594.919630097249
 20
153.786965983895
 10
594.8913608063251
 20
153.766111510781
 10
594.867006348469
 20
153.747165578393
 10
594.846588181355
 20
153.730521577386
 10
594.830115841725
 20
153.716572898416
  0
LWPOLYLINE
  5
707
330
1F
100
AcDbEntity
  8
Sichtbare_Kanten_TC_020513_DIN_
  6
Continuous
 62
     7
100
AcDbPolyline
 90
       25
 70
     0
 43
0.0
 10
594.645021962026
 20
153.716572898416
 10
594.6522508133439
 20
153.728851455239
 10
594.660872029164
 20
153.74299802163
 10
594.6708879936721
 20
153.758788484124
 10
594.6822987068681
 20
153.776001113442
 10
594.6951041687521
 20
153.794410604028
 10
594.709309147695
 20
153.813792842416
 10
594.7249112595109
 20
153.833926099328
 10
594.7419128883871
 20
153.854585069207
 10
594.760316418508
 20
153.875545638589
 10
594.7801218498739
 20
153.896586078195
 10
594.801329182485
 20
153.91748227456
 10
594.823940800527
 20
153.938008922128
 10
594.847935246328
 20
153.957926410226
 10
594.8728189934279
 20
153.976698297051
 10
594.898372696736
 20
153.994094508676
 10
594.924558209279
 20
154.01002921441
 10
594.951330231527
 20
154.024413007287
 10
594.978645848134
 20
154.037158864526
 10
595.0064406860861
 20
154.048170226602
 10
595.034426258901
 20
154.057287353066
 10
595.062488125661
 20
154.064447062997
 10
595.090564297536
 20
154.069610017327
 10
595.118597554067
 20
154.072735684899
 10
595.146525906423
 20
154.073784726647
  0
LWPOLYLINE
  5
708
330
1F
100
AcDbEntity
  8
Sichtbare_Kanten_TC_020513_DIN_
  6
Continuous
 62
     7
100
AcDbPolyline
 90
       25
 70
     0
 43
0.0
 10
594.830115841725
 20
153.716572898416
 10
594.8147736061601
 20
153.703297751931
 10
594.7994242180371
 20
153.690022605447
 10
594.784062908986
 20
153.676748651055
 10
594.7686920631911
 20
153.663474696664
 10
594.753311680653
 20
153.650201934365
 10
594.737924145558
 20
153.636927979974
 10
594.7225270737199
 20
153.623654025582
 10
594.7071228493239
 20
153.610381263284
 10
594.691709088185
 20
153.597107308892
 10
594.676290558674
 20
153.583833354501
 10
594.6608624924211
 20
153.570558208016
 10
594.64542727361
 20
153.557283061532
 10
594.629989670613
 20
153.544009107141
 10
594.614544915059
 20
153.530733960656
 10
594.599095391133
 20
153.517460006265
 10
594.583643483021
 20
153.504186051873
 10
594.568186806538
 20
153.490913289575
 10
594.5527277458691
 20
153.477639335183
 10
594.537266301015
 20
153.464365380792
 10
594.5218024719741
 20
153.451092618493
 10
594.506336258748
 20
153.437818664102
 10
594.4908676613361
 20
153.42454470971
 10
594.475396679738
 20
153.411269563226
 10
594.4599256981401
 20
153.397994416741
  0
LWPOLYLINE
  5
709
330
1F
100
AcDbEntity
  8
Sichtbare_Kanten_TC_020513_DIN_
  6
Continuous
 62
     7
100
AcDbPolyline
 90
       25
 70
     0
 43
0.0
 10
594.4599256981401
 20
153.397994416741
 10
594.4676623810319
 20
153.411269563226
 10
594.475396679738
 20
153.42454470971
 10
594.483130978444
 20
153.437818664102
 10
594.4908652771501
 20
153.451092618493
 10
594.498597191671
 20
153.464365380792
 10
594.506326722005
 20
153.477639335183
 10
594.5140562523391
 20
153.490913289575
 10
594.521785782674
 20
153.504186051873
 10
594.5295105446371
 20
153.517460006265
 10
594.5372353066
 20
153.530733960656
 10
594.5449576843771
 20
153.544009107141
 10
594.552677677968
 20
153.557283061532
 10
594.5603952873739
 20
153.570558208016
 10
594.5681081284081
 20
153.583833354501
 10
594.575818585256
 20
153.597107308892
 10
594.5835242737321
 20
153.610381263284
 10
594.5912275780231
 20
153.623654025582
 10
594.5989261139421
 20
153.636927979974
 10
594.6066198814899
 20
153.650201934365
 10
594.6143088806659
 20
153.663474696664
 10
594.6219954956559
 20
153.676748651055
 10
594.629674958089
 20
153.690022605447
 10
594.6373496521501
 20
153.703297751931
 10
594.645021962026
 20
153.716572898416
  0
LWPOLYLINE
  5
70A
330
1F
100
AcDbEntity
  8
Sichtbare_Kanten_TC_020513_DIN_
  6
Continuous
 62
     7
100
AcDbPolyline
 90
       25
 70
     0
 43
0.0
 10
597.259927796224
 20
154.509040492562
 10
597.259853886465
 20
154.500112908868
 10
597.259634541372
 20
154.491184133081
 10
597.2592673767599
 20
154.482256549386
 10
597.2587571610011
 20
154.473328965692
 10
597.2580991257221
 20
154.46440257409
 10
597.257293270925
 20
154.455476182488
 10
597.2563443649799
 20
154.446548598794
 10
597.255247639516
 20
154.437622207192
 10
597.2540054787189
 20
154.428694623498
 10
597.252617882589
 20
154.419767039804
 10
597.2510824669389
 20
154.410838264016
 10
597.2494016159569
 20
154.401910680322
 10
597.247577713827
 20
154.392981904534
 10
597.2456059921769
 20
154.384053128747
 10
597.243488835195
 20
154.375125545052
 10
597.2412262428791
 20
154.366199153451
 10
597.2388182152299
 20
154.357271569757
 10
597.236267136434
 20
154.348345178155
 10
597.233568238119
 20
154.339417594461
 10
597.2307262886561
 20
154.330491202859
 10
597.22773890386
 20
154.321563619164
 10
597.2246084679159
 20
154.31263603547
 10
597.221330212453
 20
154.303708451775
 10
597.2179089058429
 20
154.294779675988
  0
LWPOLYLINE
  5
70B
330
1F
100
AcDbEntity
  8
Sichtbare_Kanten_TC_020513_DIN_
  6
Continuous
 62
     7
100
AcDbPolyline
 90
       25
 70
     0
 43
0.0
 10
595.8389173019921
 20
154.294779675988
 10
595.84062914739
 20
154.303708451775
 10
595.842267083028
 20
154.31263603547
 10
595.8438334930929
 20
154.321563619164
 10
595.8453259933981
 20
154.330491202859
 10
595.84674696813
 20
154.339417594461
 10
595.848096417287
 20
154.348345178155
 10
595.8493719566859
 20
154.357271569757
 10
595.8505759705099
 20
154.366199153451
 10
595.8517084587611
 20
154.375125545052
 10
595.8527670372521
 20
154.384053128747
 10
595.853751705984
 20
154.392981904534
 10
595.854664849142
 20
154.401910680322
 10
595.8555040825399
 20
154.410838264016
 10
595.8562717903651
 20
154.419767039804
 10
595.8569655884301
 20
154.428694623498
 10
595.8575878609211
 20
154.437622207192
 10
595.858136223653
 20
154.446548598794
 10
595.8586106766261
 20
154.455476182488
 10
595.8590136040241
 20
154.46440257409
 10
595.8593426216639
 20
154.473328965692
 10
595.8595977295431
 20
154.482256549386
 10
595.859781311849
 20
154.491184133081
 10
595.8598909843961
 20
154.500112908868
 10
595.859926747182
 20
154.509040492562
  0
LWPOLYLINE
  5
70C
330
1F
100
AcDbEntity
  8
Sichtbare_Kanten_TC_020513_DIN_
  6
Continuous
 62
     7
100
AcDbPolyline
 90
       25
 70
     0
 43
0.0
 10
597.2179089058429
 20
154.294779675988
 10
597.2142706383261
 20
154.285749572305
 10
597.2099600304159
 20
154.275735991983
 10
597.2049007881669
 20
154.264872449426
 10
597.199011849264
 20
154.25329722741
 10
597.192209767202
 20
154.241141456155
 10
597.184413479665
 20
154.228544610528
 10
597.1755443085231
 20
154.215637820748
 10
597.165521191457
 20
154.202559369592
 10
597.154260681966
 20
154.189443963555
 10
597.141681717733
 20
154.176425117043
 10
597.1277056206261
 20
154.163639920739
 10
597.112251328328
 20
154.151221889047
 10
597.095235394338
 20
154.139308112649
 10
597.0765767563371
 20
154.128033298043
 10
597.0565114487199
 20
154.117666858224
 10
597.035378025869
 20
154.10841025689
 10
597.01318364034
 20
154.100259917764
 10
596.9899402130629
 20
154.093208688287
 10
596.9656548965961
 20
154.087255376367
 10
596.9403419960529
 20
154.082394021539
 10
596.9140086639909
 20
154.078621047524
 10
596.886664437154
 20
154.075931685952
 10
596.8583212364699
 20
154.07432116845
 10
596.828986214498
 20
154.073784726647
  0
LWPOLYLINE
  5
70D
330
1F
100
AcDbEntity
  8
Sichtbare_Kanten_TC_020513_DIN_
  6
Continuous
 62
     7
100
AcDbPolyline
 90
       25
 70
     0
 43
0.0
 10
595.644455956319
 20
154.073784726647
 10
595.6587229240929
 20
154.074293750314
 10
595.6724701393639
 20
154.075814860848
 10
595.685697602132
 20
154.078337329415
 10
595.6984053123981
 20
154.081849235086
 10
595.710590885976
 20
154.086342233209
 10
595.7222567070521
 20
154.091805594949
 10
595.7334027756251
 20
154.098226207284
 10
595.744029091695
 20
154.105596917657
 10
595.7541332710771
 20
154.113904613046
 10
595.763705777028
 20
154.123127835778
 10
595.7727156151329
 20
154.133211749581
 10
595.781177090505
 20
154.144128936318
 10
595.7891021240739
 20
154.155855554132
 10
595.796505020955
 20
154.168371337441
 10
595.8034000862631
 20
154.181651252297
 10
595.8097682465111
 20
154.195579665689
 10
595.815442608694
 20
154.209616559533
 10
595.8204470146691
 20
154.223529475717
 10
595.8248243797809
 20
154.237146752862
 10
595.8286200035609
 20
154.250296729592
 10
595.831881569723
 20
154.262807744531
 10
595.8346567619831
 20
154.274506944207
 10
595.8369861115009
 20
154.285221475152
 10
595.8389173019921
 20
154.294779675988
  0
LWPOLYLINE
  5
70E
330
1F
100
AcDbEntity
  8
Sichtbare_Kanten_TC_020513_DIN_
  6
Continuous
 62
     7
100
AcDbPolyline
 90
       25
 70
     0
 43
0.0
 10
588.5444007385761
 20
152.96364583352
 10
588.5167441834001
 20
153.03045310357
 10
588.4891436565899
 20
153.09571661332
 10
588.4615788925671
 20
153.159315961389
 10
588.4340355862159
 20
153.221131938485
 10
588.4064922798659
 20
153.28104533532
 10
588.3789334763071
 20
153.338936942605
 10
588.351340102055
 20
153.394687551049
 10
588.3236942757151
 20
153.448176759271
 10
588.2960281837959
 20
153.49919475892
 10
588.2684193123359
 20
153.547472137002
 10
588.240849779942
 20
153.592924254922
 10
588.213304089405
 20
153.635472434548
 10
588.1857619751479
 20
153.675036805657
 10
588.158206747868
 20
153.711539882211
 10
588.1306205261731
 20
153.744900601892
 10
588.102985428669
 20
153.775041478662
 10
588.075313376286
 20
153.801854032067
 10
588.047690199711
 20
153.825188058404
 10
588.020105170109
 20
153.845006602792
 10
587.9925415981791
 20
153.861283439187
 10
587.964981602528
 20
153.873991149453
 10
587.9374061096689
 20
153.883101123361
 10
587.9097984303021
 20
153.888587134866
 10
587.8821394909401
 20
153.890421765832
  0
LWPOLYLINE
  5
70F
330
1F
100
AcDbEntity
  8
Sichtbare_Kanten_TC_020513_DIN_
  6
Continuous
 62
     7
100
AcDbPolyline
 90
       25
 70
     0
 43
0.0
 10
587.8821394909401
 20
155.290421622781
 10
587.9097698200719
 20
155.286759513406
 10
587.9373488892099
 20
155.275811332253
 10
587.964893387654
 20
155.257629531411
 10
587.99242238889
 20
155.232271331338
 10
588.019953774312
 20
155.199791568307
 10
588.04750423322
 20
155.160243886498
 10
588.0750928391001
 20
155.113686698464
 10
588.102733897068
 20
155.060179608849
 10
588.1303511131789
 20
155.000000375298
 10
588.1579206455731
 20
154.933383840112
 10
588.1854603756451
 20
154.860486167459
 10
588.212988184788
 20
154.781464713601
 10
588.240521954396
 20
154.696474450616
 10
588.2680795658621
 20
154.605675118951
 10
588.2956800926711
 20
154.509221690682
 10
588.3233283031971
 20
154.407314437417
 10
588.3509634007
 20
154.300442117242
 10
588.3785853851821
 20
154.188882487802
 10
588.406214522222
 20
154.072856086282
 10
588.433865116933
 20
153.952592986611
 10
588.461504982808
 20
153.828550952462
 10
588.4891293514761
 20
153.701080459146
 10
588.5167549122359
 20
153.570435422448
 10
588.5444007385761
 20
153.436868566064
  0
LWPOLYLINE
  5
710
330
1F
100
AcDbEntity
  8
Sichtbare_Kanten_TC_020513_DIN_
  6
Continuous
 62
     7
100
AcDbPolyline
 90
       25
 70
     0
 43
0.0
 10
588.9558289516949
 20
152.490421908883
 10
588.9419219959759
 20
152.499808448342
 10
588.9261625278971
 20
152.510744708566
 10
588.908744858601
 20
152.523219960717
 10
588.8898632992291
 20
152.537225860146
 10
588.869713353017
 20
152.552751678018
 10
588.848490523198
 20
152.569787877587
 10
588.826387928822
 20
152.58832373002
 10
588.803602265217
 20
152.608348506478
 10
588.780327843526
 20
152.629855054406
 10
588.7567601669809
 20
152.652831452874
 10
588.73309473882
 20
152.677268165139
 10
588.70952467809
 20
152.703155654458
 10
588.6863098610429
 20
152.730402129678
 10
588.664766358235
 20
152.757444757012
 10
588.645267294743
 20
152.783613580255
 10
588.6277089584851
 20
152.808813231973
 10
588.611985253194
 20
152.832942384271
 10
588.5979888905069
 20
152.855903285531
 10
588.5856161583449
 20
152.877599376229
 10
588.574760960438
 20
152.897930520562
 10
588.56531720052
 20
152.916798966912
 10
588.557179974415
 20
152.934106963662
 10
588.550243185857
 20
152.949754375009
 10
588.5444007385761
 20
152.96364583352
  0
LWPOLYLINE
  5
711
330
1F
100
AcDbEntity
  8
Sichtbare_Kanten_TC_020513_DIN_
  6
Continuous
 62
     7
100
AcDbPolyline
 90
       25
 70
     0
 43
0.0
 10
588.5444007385761
 20
153.436868566064
 10
588.56130700002
 20
153.360196727304
 10
588.5794101227309
 20
153.287952321557
 10
588.5983942020921
 20
153.220155614404
 10
588.6179397572071
 20
153.156823295144
 10
588.6377332676441
 20
153.09797682145
 10
588.6574552525069
 20
153.043636458901
 10
588.6767898071801
 20
152.993820088891
 10
588.6954365242509
 20
152.948512214212
 10
588.7139580715691
 20
152.905931848077
 10
588.732689427236
 20
152.865087169198
 10
588.751522110799
 20
152.826006787805
 10
588.770346449712
 20
152.788715737847
 10
588.789052771428
 20
152.753241437463
 10
588.8075314034011
 20
152.719608920602
 10
588.8256750572709
 20
152.687844413308
 10
588.8433728683981
 20
152.657976525811
 10
588.8605175484211
 20
152.630029099969
 10
588.876997040609
 20
152.604030746011
 10
588.8927052486929
 20
152.580006497888
 10
588.907530115941
 20
152.557982581643
 10
588.9213643539931
 20
152.537985223321
 10
588.9340982903029
 20
152.520043033151
 10
588.945622252324
 20
152.504178660897
 10
588.9558289516949
 20
152.490421908883
  0
LWPOLYLINE
  5
712
330
1F
100
AcDbEntity
  8
Sichtbare_Kanten_TC_020513_DIN_
  6
Continuous
 62
     7
100
AcDbPolyline
 90
       25
 70
     0
 43
0.0
 10
557.9640243519341
 20
152.490421908883
 10
557.974231051305
 20
152.504178660897
 10
557.9857550133261
 20
152.520043033151
 10
557.9984889496361
 20
152.537985223321
 10
558.012323187688
 20
152.557982581643
 10
558.0271480549361
 20
152.580006497888
 10
558.0428562630209
 20
152.604030746011
 10
558.0593357552079
 20
152.630029099969
 10
558.0764804352309
 20
152.657976525811
 10
558.0941782463581
 20
152.687844413308
 10
558.1123219002279
 20
152.719608920602
 10
558.130800532201
 20
152.753241437463
 10
558.149506853917
 20
152.788715737847
 10
558.16833119283
 20
152.826006787805
 10
558.187163876393
 20
152.865087169198
 10
558.205895232061
 20
152.905931848077
 10
558.2244167793781
 20
152.948512214212
 10
558.2430634964489
 20
152.993820088891
 10
558.2623980511221
 20
153.043636458901
 10
558.2821200359849
 20
153.09797682145
 10
558.3019135464219
 20
153.156823295144
 10
558.3214591015369
 20
153.220155614404
 10
558.3404431808981
 20
153.28795351365
 10
558.358546303609
 20
153.360196727304
 10
558.3754525650529
 20
153.436868566064
  0
LWPOLYLINE
  5
713
330
1F
100
AcDbEntity
  8
Sichtbare_Kanten_TC_020513_DIN_
  6
Continuous
 62
     7
100
AcDbPolyline
 90
       25
 70
     0
 43
0.0
 10
558.3754525650529
 20
153.436868566064
 10
558.403082894185
 20
153.570359128503
 10
558.430661963323
 20
153.700783628015
 10
558.4582064617659
 20
153.827902453927
 10
558.4857354630019
 20
153.951475995568
 10
558.5132668484241
 20
154.071263450173
 10
558.540817307332
 20
154.187027591256
 10
558.5684059132129
 20
154.298526423959
 10
558.5960469711811
 20
154.405507224587
 10
558.6236641872911
 20
154.507388251809
 10
558.6512325275919
 20
154.603838103799
 10
558.6787722576639
 20
154.694691079644
 10
558.7063012589001
 20
154.779781478433
 10
558.7338350285081
 20
154.858943599252
 10
558.7613926399731
 20
154.932014125375
 10
558.788993166783
 20
154.998827355889
 10
558.8166413773081
 20
155.059193748025
 10
558.844276474812
 20
155.112806933908
 10
558.871898459294
 20
155.15954055169
 10
558.899527596333
 20
155.199304002313
 10
558.927178191044
 20
155.232006686715
 10
558.9548180569191
 20
155.257517474679
 10
558.982441233494
 20
155.275777953652
 10
559.0100679863469
 20
155.286755937127
 10
559.0377138126871
 20
155.290421622781
  0
LWPOLYLINE
  5
714
330
1F
100
AcDbEntity
  8
Sichtbare_Kanten_TC_020513_DIN_
  6
Continuous
 62
     7
100
AcDbPolyline
 90
       25
 70
     0
 43
0.0
 10
558.3754525650529
 20
152.96364583352
 10
558.369610117772
 20
152.949754375009
 10
558.3626733292131
 20
152.934106963662
 10
558.3545361031081
 20
152.916798966912
 10
558.3450923431899
 20
152.897930520562
 10
558.3342371452829
 20
152.877599376229
 10
558.3218644131209
 20
152.855903285531
 10
558.307868050435
 20
152.832942384271
 10
558.292144345143
 20
152.808813231973
 10
558.2745860088851
 20
152.783613580255
 10
558.255086945393
 20
152.757444757012
 10
558.2335434425861
 20
152.730402129678
 10
558.210328625539
 20
152.703155654458
 10
558.186758564809
 20
152.677268165139
 10
558.1630931366469
 20
152.652831452874
 10
558.139525460103
 20
152.629855054406
 10
558.1162510384111
 20
152.608348506478
 10
558.0934653748061
 20
152.58832373002
 10
558.071362780431
 20
152.569787877587
 10
558.050139950612
 20
152.552751678018
 10
558.029990004399
 20
152.537225860146
 10
558.011108445027
 20
152.523219960717
 10
557.993690775731
 20
152.510744708566
 10
557.9779313076519
 20
152.499808448342
 10
557.9640243519341
 20
152.490421908883
  0
LWPOLYLINE
  5
715
330
1F
100
AcDbEntity
  8
Sichtbare_Kanten_TC_020513_DIN_
  6
Continuous
 62
     7
100
AcDbPolyline
 90
       25
 70
     0
 43
0.0
 10
559.0377138126871
 20
153.890421765832
 10
559.0100572575111
 20
153.888587134866
 10
558.982455538609
 20
153.883103507546
 10
558.954891966679
 20
153.873998302011
 10
558.927347468235
 20
153.861302512673
 10
558.8998053539781
 20
153.845044749764
 10
558.872246550419
 20
153.82525243142
 10
558.844653176167
 20
153.801956552056
 10
558.817007349827
 20
153.775185721902
 10
558.7893412579081
 20
153.745026963738
 10
558.7617323864481
 20
153.711648362664
 10
558.7341628540539
 20
153.675136941461
 10
558.706617163517
 20
153.635572570352
 10
558.6790750492601
 20
153.59303869584
 10
558.65151982198
 20
153.547617572335
 10
558.623933600285
 20
153.499390262155
 10
558.5962985027811
 20
153.448440211801
 10
558.5686264503979
 20
153.394910472421
 10
558.541003273823
 20
153.339107411889
 10
558.5134182442209
 20
153.281168120889
 10
558.485854672291
 20
153.221213000802
 10
558.45829467664
 20
153.159363645104
 10
558.4307191837811
 20
153.095738070992
 10
558.403111504414
 20
153.030459064035
 10
558.3754525650529
 20
152.96364583352
  0
LWPOLYLINE
  5
716
330
1F
100
AcDbEntity
  8
Sichtbare_Kanten_TC_020513_DIN_
  6
Continuous
 62
     7
100
AcDbPolyline
 90
       25
 70
     0
 43
0.0
 10
557.77214388738
 20
141.330276506928
 10
557.762316273549
 20
141.376640873937
 10
557.7524922359969
 20
141.423361974744
 10
557.742670582631
 20
141.470428186444
 10
557.7328525055441
 20
141.517827290086
 10
557.7230356205489
 20
141.565547662763
 10
557.7132187355551
 20
141.613577383546
 10
557.703403042653
 20
141.66190393546
 10
557.693586157659
 20
141.710515993623
 10
557.6837680805711
 20
141.759401339082
 10
557.673946427205
 20
141.808547752885
 10
557.6641223896529
 20
141.857943314103
 10
557.6542935837299
 20
141.907576697854
 10
557.6444659698991
 20
141.957410949258
 10
557.634641932347
 20
142.007407921342
 10
557.6248202789809
 20
142.057556289224
 10
557.615002201894
 20
142.107842939881
 10
557.605185316899
 20
142.158254760293
 10
557.595368431905
 20
142.208780425576
 10
557.5855527390031
 20
142.259406822709
 10
557.575735854009
 20
142.31012083867
 10
557.565917776921
 20
142.360910552529
 10
557.5560961235551
 20
142.411763447312
 10
557.546272086003
 20
142.462666409997
 10
557.5364444721731
 20
142.513607519654
  0
LWPOLYLINE
  5
717
330
1F
100
AcDbEntity
  8
Sichtbare_Kanten_TC_020513_DIN_
  6
Continuous
 62
     7
100
AcDbPolyline
 90
       25
 70
     0
 43
0.0
 10
557.5364444721731
 20
142.513607519654
 10
557.546272086003
 20
142.488137262849
 10
557.5560961235551
 20
142.462685483483
 10
557.565917776921
 20
142.437259334115
 10
557.5757358540079
 20
142.411864179162
 10
557.5855527390031
 20
142.386507171182
 10
557.595368431904
 20
142.361194270638
 10
557.605185316899
 20
142.335931437997
 10
557.615002201893
 20
142.310725229768
 10
557.6248202789809
 20
142.285582202462
 10
557.634641932347
 20
142.260507720498
 10
557.6444659698991
 20
142.235509532479
 10
557.654293583729
 20
142.210592406777
 10
557.6641223896529
 20
142.185775416879
 10
557.673946427205
 20
142.16107763627
 10
557.6837680805711
 20
142.136504429368
 10
557.693586157658
 20
142.112061756638
 10
557.703403042653
 20
142.087755578546
 10
557.7132187355539
 20
142.0635924516
 10
557.7230356205489
 20
142.03957774022
 10
557.732852505543
 20
142.01571740487
 10
557.742670582631
 20
141.992018002061
 10
557.7524922359969
 20
141.968484896211
 10
557.762316273549
 20
141.945124047784
 10
557.7721438873791
 20
141.921942013291
  0
LWPOLYLINE
  5
718
330
1F
100
AcDbEntity
  8
Sichtbare_Kanten_TC_020513_DIN_
  6
Continuous
 62
     7
100
AcDbPolyline
 90
       25
 70
     0
 43
0.0
 10
549.701944397787
 20
154.294779675988
 10
549.698523091176
 20
154.303708451775
 10
549.695244835714
 20
154.31263603547
 10
549.6921143997699
 20
154.321563619164
 10
549.689127014974
 20
154.330491202859
 10
549.6862850655109
 20
154.339417594461
 10
549.6835861671959
 20
154.348345178155
 10
549.6810350883991
 20
154.357271569757
 10
549.6786270607499
 20
154.366199153451
 10
549.6763644684349
 20
154.375125545052
 10
549.6742473114521
 20
154.384053128747
 10
549.6722755898029
 20
154.392981904534
 10
549.670451687673
 20
154.401910680322
 10
549.6687708366901
 20
154.410838264016
 10
549.6672354210409
 20
154.419767039804
 10
549.665847824911
 20
154.428694623498
 10
549.664605664113
 20
154.437622207192
 10
549.66350893865
 20
154.446548598794
 10
549.662560032705
 20
154.455476182488
 10
549.6617541779069
 20
154.46440257409
 10
549.661096142629
 20
154.473328965692
 10
549.66058592687
 20
154.482256549386
 10
549.660218762258
 20
154.491184133081
 10
549.659999417165
 20
154.500112908868
 10
549.6599255074061
 20
154.509040492562
  0
LWPOLYLINE
  5
719
330
1F
100
AcDbEntity
  8
Sichtbare_Kanten_TC_020513_DIN_
  6
Continuous
 62
     7
100
AcDbPolyline
 90
       25
 70
     0
 43
0.0
 10
551.0599265564481
 20
154.509040492562
 10
551.059962319234
 20
154.500112908868
 10
551.0600719917811
 20
154.491184133081
 10
551.060255574087
 20
154.482256549386
 10
551.060510681966
 20
154.473328965692
 10
551.0608396996049
 20
154.46440257409
 10
551.061242627004
 20
154.455476182488
 10
551.0617170799769
 20
154.446548598794
 10
551.0622654427079
 20
154.437622207192
 10
551.0628877152001
 20
154.428694623498
 10
551.063581513265
 20
154.419767039804
 10
551.06434922109
 20
154.410838264016
 10
551.065188454488
 20
154.401910680322
 10
551.0661015976459
 20
154.392981904534
 10
551.067086266378
 20
154.384053128747
 10
551.068144844869
 20
154.375125545052
 10
551.06927733312
 20
154.366199153451
 10
551.070481346944
 20
154.357271569757
 10
551.071756886342
 20
154.348345178155
 10
551.0731063354999
 20
154.339417594461
 10
551.074527310232
 20
154.330491202859
 10
551.076019810537
 20
154.321563619164
 10
551.0775862206019
 20
154.31263603547
 10
551.0792241562401
 20
154.303708451775
 10
551.0809360016381
 20
154.294779675988
  0
LWPOLYLINE
  5
71A
330
1F
100
AcDbEntity
  8
Sichtbare_Kanten_TC_020513_DIN_
  6
Continuous
 62
     7
100
AcDbPolyline
 90
       25
 70
     0
 43
0.0
 10
552.4599276054889
 20
153.397994416741
 10
552.444456623891
 20
153.411269563226
 10
552.4289856422929
 20
153.42454470971
 10
552.413517044881
 20
153.437818664102
 10
552.398050831654
 20
153.451092618493
 10
552.382587002614
 20
153.464365380792
 10
552.367125557759
 20
153.477639335183
 10
552.35166649709
 20
153.490913289575
 10
552.3362098206071
 20
153.504186051873
 10
552.3207579124951
 20
153.517460006265
 10
552.30530838857
 20
153.530733960656
 10
552.2898636330151
 20
153.544009107141
 10
552.274426030018
 20
153.557283061532
 10
552.258990811207
 20
153.570558208016
 10
552.243562744954
 20
153.583833354501
 10
552.2281442154431
 20
153.597107308892
 10
552.2127304543039
 20
153.610381263284
 10
552.1973262299091
 20
153.623654025582
 10
552.18192915807
 20
153.636927979974
 10
552.166541622975
 20
153.650201934365
 10
552.151161240437
 20
153.663474696664
 10
552.135790394643
 20
153.676748651055
 10
552.120429085591
 20
153.690022605447
 10
552.105079697468
 20
153.703297751931
 10
552.089737461903
 20
153.716572898416
  0
LWPOLYLINE
  5
71B
330
1F
100
AcDbEntity
  8
Sichtbare_Kanten_TC_020513_DIN_
  6
Continuous
 62
     7
100
AcDbPolyline
 90
       25
 70
     0
 43
0.0
 10
552.274831341603
 20
153.716572898416
 10
552.2825036514789
 20
153.703297751931
 10
552.29017834554
 20
153.690022605447
 10
552.2978578079731
 20
153.676748651055
 10
552.3055444229631
 20
153.663474696664
 10
552.3132334221391
 20
153.650201934365
 10
552.3209271896869
 20
153.636927979974
 10
552.3286257256061
 20
153.623654025582
 10
552.3363290298971
 20
153.610381263284
 10
552.344034718373
 20
153.597107308892
 10
552.3517451752209
 20
153.583833354501
 10
552.3594580162551
 20
153.570558208016
 10
552.367175625661
 20
153.557283061532
 10
552.3748956192519
 20
153.544009107141
 10
552.382617997029
 20
153.530733960656
 10
552.3903427589919
 20
153.517460006265
 10
552.398067520955
 20
153.504186051873
 10
552.4057970512899
 20
153.490913289575
 10
552.413526581624
 20
153.477639335183
 10
552.4212561119591
 20
153.464365380792
 10
552.4289880264789
 20
153.451092618493
 10
552.436722325185
 20
153.437818664102
 10
552.444456623891
 20
153.42454470971
 10
552.4521909225971
 20
153.411269563226
 10
552.4599276054889
 20
153.397994416741
  0
LWPOLYLINE
  5
71C
330
1F
100
AcDbEntity
  8
Sichtbare_Kanten_TC_020513_DIN_
  6
Continuous
 62
     7
100
AcDbPolyline
 90
       25
 70
     0
 43
0.0
 10
552.089737461903
 20
153.716572898416
 10
552.076324032643
 20
153.727934735803
 10
552.0596895683791
 20
153.741547244576
 10
552.039865063527
 20
153.757136243371
 10
552.0168791283161
 20
153.774433511285
 10
551.9907651413471
 20
153.793167251138
 10
551.961549328664
 20
153.813066857842
 10
551.929262684682
 20
153.833862918405
 10
551.8939362038161
 20
153.855282443551
 10
551.855598496297
 20
153.877056020288
 10
551.814280556538
 20
153.898913043527
 10
551.7700109947709
 20
153.920582908181
 10
551.7228208054089
 20
153.941795009164
 10
551.6727409828691
 20
153.962277549294
 10
551.619945572713
 20
153.981719392327
 10
551.566334771016
 20
153.999406474618
 10
551.5125546921281
 20
154.015170711068
 10
551.458693550923
 20
154.0290252147
 10
551.404839562276
 20
154.040986674813
 10
551.351078556874
 20
154.051069396524
 10
551.297498749592
 20
154.059285300759
 10
551.24418597112
 20
154.065651076821
 10
551.19122843633
 20
154.070179837731
 10
551.1387143600971
 20
154.072885888604
 10
551.0867295731091
 20
154.073784726647
  0
LWPOLYLINE
  5
71D
330
1F
100
AcDbEntity
  8
Sichtbare_Kanten_TC_020513_DIN_
  6
Continuous
 62
     7
100
AcDbPolyline
 90
       25
 70
     0
 43
0.0
 10
551.773327397206
 20
154.073784726647
 10
551.8007979858901
 20
154.0727690635
 10
551.8283615578209
 20
154.069745915917
 10
551.855960892537
 20
154.064754622964
 10
551.883538769582
 20
154.057833331613
 10
551.911037968496
 20
154.049021380929
 10
551.9383941162621
 20
154.038361686257
 10
551.9653401840719
 20
154.025997298745
 10
551.991747425893
 20
154.012046235589
 10
552.0175800789391
 20
153.996590751199
 10
552.042799996236
 20
153.979713099984
 10
552.067369030812
 20
153.961497920541
 10
552.091253804067
 20
153.942027467279
 10
552.114325569966
 20
153.921466249017
 10
552.136038349965
 20
153.900412696389
 10
552.1563158501181
 20
153.879161256341
 10
552.17516045461
 20
153.857938426522
 10
552.192579315999
 20
153.836973088769
 10
552.2085700500991
 20
153.816494124917
 10
552.223142193654
 20
153.796728032617
 10
552.236298130849
 20
153.777902501611
 10
552.248042630056
 20
153.760246413735
 10
552.2583756912741
 20
153.743987458734
 10
552.267304467061
 20
153.729353326348
 10
552.274831341603
 20
153.716572898416
  0
LWPOLYLINE
  5
71E
330
1F
100
AcDbEntity
  8
Sichtbare_Kanten_TC_020513_DIN_
  6
Continuous
 62
     7
100
AcDbPolyline
 90
       25
 70
     0
 43
0.0
 10
550.090867089131
 20
154.073784726647
 10
550.0614486206559
 20
154.074323552636
 10
550.033026741841
 20
154.075943606881
 10
550.005610989431
 20
154.078649657754
 10
549.9792109001669
 20
154.082446473626
 10
549.9538360107931
 20
154.087336438684
 10
549.929498242238
 20
154.093325513391
 10
549.90620474706
 20
154.100417274026
 10
549.883967446187
 20
154.108616488961
 10
549.862798260549
 20
154.117926734475
 10
549.842713879445
 20
154.128348010568
 10
549.8241267670189
 20
154.139629977731
 10
549.8071775902299
 20
154.151543754128
 10
549.791780518392
 20
154.163953441171
 10
549.777859257558
 20
154.176725524453
 10
549.765332745412
 20
154.189725297479
 10
549.7541175354511
 20
154.20281805375
 10
549.7441349495441
 20
154.215870278863
 10
549.7353015411879
 20
154.228746074227
 10
549.7275386322531
 20
154.241311925439
 10
549.720765160421
 20
154.253431933908
 10
549.7149000633749
 20
154.264973777322
 10
549.709862278798
 20
154.275801557092
 10
549.7055707443751
 20
154.285781758813
 10
549.701944397787
 20
154.294779675988
  0
LWPOLYLINE
  5
71F
330
1F
100
AcDbEntity
  8
Sichtbare_Kanten_TC_020513_DIN_
  6
Continuous
 62
     7
100
AcDbPolyline
 90
       25
 70
     0
 43
0.0
 10
551.0809360016381
 20
154.294779675988
 10
551.082762287954
 20
154.285695928124
 10
551.084898518422
 20
154.275716918496
 10
551.0873876083881
 20
154.264961856393
 10
551.0902653206381
 20
154.253554719476
 10
551.093579338888
 20
154.241615909127
 10
551.097365425924
 20
154.229267018823
 10
551.1016641129049
 20
154.21663083413
 10
551.1065183151759
 20
154.203827756433
 10
551.1119685638939
 20
154.190980571298
 10
551.1180553902179
 20
154.178210872201
 10
551.124816941121
 20
154.165640252618
 10
551.1322985161339
 20
154.153390306024
 10
551.1405358780421
 20
154.141582625894
 10
551.1495719421889
 20
154.130339997796
 10
551.159378098348
 20
154.11985554078
 10
551.169808911184
 20
154.110378402261
 10
551.1808619965111
 20
154.101939576654
 10
551.1925468910731
 20
154.094559329537
 10
551.204875515798
 20
154.088259118585
 10
551.217828797201
 20
154.083068746118
 10
551.231366204122
 20
154.079018014459
 10
551.245478199819
 20
154.076115268258
 10
551.260155247548
 20
154.074368852166
 10
551.27539734731
 20
154.073784726647
  0
DIMENSION
  5
72B
330
1F
100
AcDbEntity
  8
Bemaßungen_TC_020513_DIN_
100
AcDbDimension
  2
*D3
 10
525.2039756446621
 20
114.6547994475641
 30
0.0
 11
520.784603202643
 21
99.5494843043172
 31
0.0
 70
    32
  1
PG21
 71
     5
 42
-1.0
 53
90.0
  3
ME10_DIM_10
100
AcDbAlignedDimension
 13
516.178361142373
 23
85.5507994475641
 33
0.0
 14
516.178361142373
 24
114.654799447564
 34
0.0
 50
90.0
100
AcDbRotatedDimension
  0
DIMENSION
  5
736
330
1F
100
AcDbEntity
  8
Bemaßungen_TC_020513_DIN_
100
AcDbDimension
  2
*D4
 10
360.7444111706567
 20
177.7127994475642
 30
0.0
 11
444.7816217153605
 21
182.086810361616
 31
0.0
 70
    32
  1
167
 71
     5
 42
-1.0
 53
0.00013888888889
  3
ME10_DIM_11
100
AcDbAlignedDimension
 13
527.6123111140889
 23
125.712799447564
 33
0.0
 14
360.7444111706567
 24
125.712799447564
 34
0.0
100
AcDbRotatedDimension
  0
DIMENSION
  5
741
330
1F
100
AcDbEntity
  8
Bemaßungen_TC_020513_DIN_
100
AcDbDimension
  2
*D5
 10
544.9599266518221
 20
177.7127994475645
 30
0.0
 11
573.823105369421
 21
182.072485668574
 31
0.0
 70
    32
  1
57
 71
     5
 42
-1.0
 53
0.00013888888889
  3
ME10_DIM_12
100
AcDbAlignedDimension
 13
601.959926651823
 23
140.712799447564
 33
0.0
 14
544.959926651823
 24
140.712799447564
 34
0.0
100
AcDbRotatedDimension
  0
DIMENSION
  5
74C
330
1F
100
AcDbEntity
  8
Bemaßungen_TC_020513_DIN_
100
AcDbDimension
  2
*D6
 10
534.6144274868042
 20
143.7127994475646
 30
0.0
 11
530.2380291239119
 21
112.566428369802
 31
0.0
 70
    32
  1
63
 71
     5
 42
-1.0
 53
90.0
  3
ME10_DIM_13
100
AcDbAlignedDimension
 13
497.178361142373
 23
80.71279944756411
 33
0.0
 14
501.328361142373
 24
143.712799447564
 34
0.0
 50
90.0
100
AcDbRotatedDimension
  0
DIMENSION
  5
757
330
1F
100
AcDbEntity
  8
Bemaßungen_TC_020513_DIN_
100
AcDbDimension
  2
*D7
 10
621.6605503328309
 20
80.71279944756441
 30
0.0
 11
617.2865394187791
 21
121.911414727237
 31
0.0
 70
    32
  1
81
 71
     5
 42
-1.0
 53
90.0
  3
ME10_DIM_14
100
AcDbAlignedDimension
 13
597.2599266518209
 23
161.712799447564
 33
0.0
 14
601.9599266518121
 24
80.71279944756411
 34
0.0
 50
90.0
100
AcDbRotatedDimension
  0
DIMENSION
  5
762
330
1F
100
AcDbEntity
  8
Bemaßungen_TC_020513_DIN_
100
AcDbDimension
  2
*D8
 10
613.6973403563809
 20
84.7127994475641
 30
0.0
 11
609.3973403563809
 21
96.052715243389
 31
0.0
 70
    32
  1
4
 71
     5
 42
-1.0
 53
90.0
  3
ME10_DIM_15
100
AcDbAlignedDimension
 13
601.9599266518121
 23
80.71279944756411
 33
0.0
 14
601.9599266518121
 24
84.71279944756411
 34
0.0
 50
90.0
100
AcDbRotatedDimension
  0
DIMENSION
  5
76D
330
1F
100
AcDbEntity
  8
Bemaßungen_TC_020513_DIN_
100
AcDbDimension
  2
*D9
 10
550.9599266518145
 20
66.71279944756417
 30
0.0
 11
573.7395446600001
 21
71.0724856685737
 31
0.0
 70
    32
  1
45
 71
     5
 42
-1.0
 53
0.00013888888889
  3
ME10_DIM_16
100
AcDbAlignedDimension
 13
595.9599266518139
 23
82.71279944756411
 33
0.0
 14
550.9599266518139
 24
82.71279944756411
 34
0.0
100
AcDbRotatedDimension
  0
DIMENSION
  5
778
330
1F
100
AcDbEntity
  8
Bemaßungen_TC_020513_DIN_
100
AcDbDimension
  2
*D10
 10
601.9599266518121
 20
57.15819045940155
 30
0.0
 11
573.823105369411
 21
61.51787668041111
 31
0.0
 70
    32
  1
57
 71
     5
 42
-1.0
 53
0.00013888888889
  3
ME10_DIM_17
100
AcDbAlignedDimension
 13
544.9599266518121
 23
82.71279944756411
 33
0.0
 14
601.9599266518121
 24
82.71279944756411
 34
0.0
100
AcDbRotatedDimension
  0
DIMENSION
  5
783
330
1F
100
AcDbEntity
  8
Bemaßungen_TC_020513_DIN_
100
AcDbDimension
  2
*D11
 10
510.1783611423728
 20
65.83856921643907
 30
0.0
 11
444.7995275816634
 21
70.2149675793313
 31
0.0
 70
    32
  1
132
 71
     5
 42
-1.0
 53
0.00013888888889
  3
ME10_DIM_18
100
AcDbAlignedDimension
 13
378.1783611423728
 23
82.71279944756411
 33
0.0
 14
510.178361142373
 24
82.71279944756411
 34
0.0
100
AcDbRotatedDimension
  0
DIMENSION
  5
78E
330
1F
100
AcDbEntity
  8
Bemaßungen_TC_020513_DIN_
100
AcDbDimension
  2
*D12
 10
372.1783611423729
 20
57.15819045940151
 30
0.0
 11
444.7887840618817
 21
61.47251515244381
 31
0.0
 70
    32
  1
144
 71
     5
 42
-1.0
 53
0.00013888888889
  3
ME10_DIM_19
100
AcDbAlignedDimension
 13
516.178361142373
 23
82.71279944756411
 33
0.0
 14
372.1783611423728
 24
82.71279944756411
 34
0.0
100
AcDbRotatedDimension
  0
ENDSEC
  0
SECTION
  2
OBJECTS
  0
DICTIONARY
  5
C
330
0
100
AcDbDictionary
281
     1
  3
ACAD_GROUP
350
D
  3
ACAD_LAYOUT
350
1A
  3
ACAD_MATERIAL
350
3B
  3
ACAD_MLEADERSTYLE
350
791
  3
ACAD_MLINESTYLE
350
17
  3
ACAD_PLOTSETTINGS
350
19
  3
ACAD_PLOTSTYLENAME
350
E
  3
ACAD_VISUALSTYLE
350
2A
  3
AcDbVariableDictionary
350
78F
  0
DICTIONARY
  5
D
102
{ACAD_REACTORS
330
C
102
}
330
C
100
AcDbDictionary
281
     1
  0
DICTIONARY
  5
1A
102
{ACAD_REACTORS
330
C
102
}
330
C
100
AcDbDictionary
281
     1
  3
Layout1
350
1E
  3
Layout2
350
26
  3
Model
350
22
  0
DICTIONARY
  5
3B
102
{ACAD_REACTORS
330
C
102
}
330
C
100
AcDbDictionary
281
     1
  3
ByBlock
350
3D
  3
ByLayer
350
3C
  3
Global
350
3E
  0
DICTIONARY
  5
791
102
{ACAD_REACTORS
330
C
102
}
330
C
100
AcDbDictionary
281
     1
  0
DICTIONARY
  5
17
102
{ACAD_REACTORS
330
C
102
}
330
C
100
AcDbDictionary
281
     1
  3
Standard
350
18
  0
DICTIONARY
  5
19
102
{ACAD_REACTORS
330
C
102
}
330
C
100
AcDbDictionary
281
     1
  0
ACDBDICTIONARYWDFLT
  5
E
102
{ACAD_REACTORS
330
C
102
}
330
C
100
AcDbDictionary
281
     1
  3
Normal
350
F
100
AcDbDictionaryWithDefault
340
F
  0
DICTIONARY
  5
2A
102
{ACAD_REACTORS
330
C
102
}
330
C
100
AcDbDictionary
281
     1
  3
2dWireframe
350
2F
  3
3D Hidden
350
31
  3
3dWireframe
350
30
  3
Basic
350
32
  3
Brighten
350
36
  3
ColorChange
350
3A
  3
Conceptual
350
34
  3
Dim
350
35
  3
Facepattern
350
39
  3
Flat
350
2B
  3
FlatWithEdges
350
2C
  3
Gouraud
350
2D
  3
GouraudWithEdges
350
2E
  3
Linepattern
350
38
  3
Realistic
350
33
  3
Thicken
350
37
  0
DICTIONARY
  5
78F
102
{ACAD_REACTORS
330
C
102
}
330
C
100
AcDbDictionary
281
     1
  3
DIMASSOC
350
792
  3
HIDETEXT
350
793
  0
LAYOUT
  5
1E
102
{ACAD_REACTORS
330
1A
102
}
330
1A
100
AcDbPlotSettings
  1

  2
none_device
  4

  6

 40
0.0
 41
0.0
 42
0.0
 43
0.0
 44
0.0
 45
0.0
 46
0.0
 47
0.0
 48
0.0
 49
0.0
140
0.0
141
0.0
142
1.0
143
1.0
 70
   688
 72
     0
 73
     0
 74
     5
  7

 75
    16
147
1.0
148
0.0
149
0.0
100
AcDbLayout
  1
Layout1
 70
     1
 71
     1
 10
0.0
 20
0.0
 11
12.0
 21
9.0
 12
0.0
 22
0.0
 32
0.0
 14
1.00000000000000E+20
 24
1.00000000000000E+20
 34
1.00000000000000E+20
 15
-1.00000000000000E+20
 25
-1.00000000000000E+20
 35
-1.00000000000000E+20
146
0.0
 13
0.0
 23
0.0
 33
0.0
 16
1.0
 26
0.0
 36
0.0
 17
0.0
 27
1.0
 37
0.0
 76
     0
330
1B
  0
LAYOUT
  5
26
102
{ACAD_REACTORS
330
1A
102
}
330
1A
100
AcDbPlotSettings
  1

  2
none_device
  4

  6

 40
0.0
 41
0.0
 42
0.0
 43
0.0
 44
0.0
 45
0.0
 46
0.0
 47
0.0
 48
0.0
 49
0.0
140
0.0
141
0.0
142
1.0
143
1.0
 70
   688
 72
     0
 73
     0
 74
     5
  7

 75
    16
147
1.0
148
0.0
149
0.0
100
AcDbLayout
  1
Layout2
 70
     1
 71
     2
 10
0.0
 20
0.0
 11
0.0
 21
0.0
 12
0.0
 22
0.0
 32
0.0
 14
0.0
 24
0.0
 34
0.0
 15
0.0
 25
0.0
 35
0.0
146
0.0
 13
0.0
 23
0.0
 33
0.0
 16
1.0
 26
0.0
 36
0.0
 17
0.0
 27
1.0
 37
0.0
 76
     0
330
23
  0
LAYOUT
  5
22
102
{ACAD_REACTORS
330
1A
102
}
330
1A
100
AcDbPlotSettings
  1

  2
none_device
  4

  6

 40
0.0
 41
0.0
 42
0.0
 43
0.0
 44
0.0
 45
0.0
 46
0.0
 47
0.0
 48
0.0
 49
0.0
140
0.0
141
0.0
142
1.0
143
1.0
 70
  1712
 72
     0
 73
     0
 74
     0
  7

 75
     0
147
1.0
148
0.0
149
0.0
100
AcDbLayout
  1
Model
 70
     1
 71
     0
 10
0.0
 20
0.0
 11
12.0
 21
9.0
 12
0.0
 22
0.0
 32
0.0
 14
340.5512598949246
 24
3.27081898810808
 34
0.0
 15
637.5512598949247
 25
213.2708189881082
 35
0.0
146
0.0
 13
0.0
 23
0.0
 33
0.0
 16
1.0
 26
0.0
 36
0.0
 17
0.0
 27
1.0
 37
0.0
 76
     0
330
1F
331
29
  0
MATERIAL
  5
3D
102
{ACAD_REACTORS
330
3B
102
}
102
{ACAD_XDICTIONARY
360
7B6
102
}
330
3B
100
AcDbMaterial
  1
ByBlock
  0
MATERIAL
  5
3C
102
{ACAD_REACTORS
330
3B
102
}
102
{ACAD_XDICTIONARY
360
7B4
102
}
330
3B
100
AcDbMaterial
  1
ByLayer
  0
MATERIAL
  5
3E
102
{ACAD_REACTORS
330
3B
102
}
102
{ACAD_XDICTIONARY
360
7B8
102
}
330
3B
100
AcDbMaterial
  1
Global
  0
MLINESTYLE
  5
18
102
{ACAD_REACTORS
330
17
102
}
330
17
100
AcDbMlineStyle
  2
Standard
 70
     0
  3

 62
   256
 51
90.0
 52
90.0
 71
     2
 49
0.5
 62
   256
  6
BYLAYER
 49
-0.5
 62
   256
  6
BYLAYER
  0
ACDBPLACEHOLDER
  5
F
102
{ACAD_REACTORS
330
E
102
}
330
E
  0
VISUALSTYLE
  5
2F
102
{ACAD_REACTORS
330
2A
102
}
102
{ACAD_XDICTIONARY
360
79C
102
}
330
2A
100
AcDbVisualStyle
  2
2dWireframe
 70
     4
 71
     0
 72
     2
 73
     0
 90
        0
 40
-0.6
 41
-30.0
 62
     5
 63
     7
 74
     1
 91
        4
 64
     7
 65
   257
 75
     1
175
     1
 42
1.0
 92
        0
 66
   257
 43
1.0
 76
     1
 77
     6
 78
     2
 67
     7
 79
     5
170
     0
171
     0
290
     0
174
     0
 93
        1
 44
0.0
173
     0
291
     0
 45
0.0
1001
ACAD
1000
AcDbSavedByObjectVersion
1070
     0
  0
VISUALSTYLE
  5
31
102
{ACAD_REACTORS
330
2A
102
}
102
{ACAD_XDICTIONARY
360
7A0
102
}
330
2A
100
AcDbVisualStyle
  2
3D Hidden
 70
     6
 71
     1
 72
     2
 73
     2
 90
        0
 40
-0.6
 41
-30.0
 62
     5
 63
     7
 74
     2
 91
        2
 64
     7
 65
   257
 75
     2
175
     1
 42
40.0
 92
        0
 66
   257
 43
1.0
 76
     1
 77
     6
 78
     2
 67
     7
 79
     3
170
     0
171
     0
290
     0
174
     0
 93
        1
 44
0.0
173
     0
291
     0
 45
0.0
1001
ACAD
1000
AcDbSavedByObjectVersion
1070
     0
  0
VISUALSTYLE
  5
30
102
{ACAD_REACTORS
330
2A
102
}
102
{ACAD_XDICTIONARY
360
79E
102
}
330
2A
100
AcDbVisualStyle
  2
3dWireframe
 70
     5
 71
     0
 72
     2
 73
     0
 90
        0
 40
-0.6
 41
-30.0
 62
     5
 63
     7
 74
     1
 91
        4
 64
     7
 65
   257
 75
     1
175
     1
 42
1.0
 92
        0
 66
   257
 43
1.0
 76
     1
 77
     6
 78
     2
 67
     7
 79
     5
170
     0
171
     0
290
     0
174
     0
 93
        1
 44
0.0
173
     0
291
     0
 45
0.0
1001
ACAD
1000
AcDbSavedByObjectVersion
1070
     0
  0
VISUALSTYLE
  5
32
102
{ACAD_REACTORS
330
2A
102
}
102
{ACAD_XDICTIONARY
360
7A2
102
}
330
2A
100
AcDbVisualStyle
  2
Basic
 70
     7
 71
     1
 72
     0
 73
     1
 90
        0
 40
-0.6
 41
-30.0
 62
     5
 63
     7
 74
     0
 91
        4
 64
     7
 65
   257
 75
     1
175
     1
 42
1.0
 92
        8
 66
     7
 43
1.0
 76
     1
 77
     6
 78
     2
 67
     7
 79
     5
170
     0
171
     0
290
     0
174
     0
 93
        1
 44
0.0
173
     0
291
     1
 45
0.0
1001
ACAD
1000
AcDbSavedByObjectVersion
1070
     0
  0
VISUALSTYLE
  5
36
102
{ACAD_REACTORS
330
2A
102
}
102
{ACAD_XDICTIONARY
360
7AA
102
}
330
2A
100
AcDbVisualStyle
  2
Brighten
 70
    12
 71
     2
 72
     2
 73
     0
 90
        0
 40
-0.6
 41
-30.0
 62
     5
 63
     7
 74
     1
 91
        4
 64
     7
 65
   257
 75
     1
175
     1
 42
1.0
 92
        8
 66
     7
 43
1.0
 76
     1
 77
     6
 78
     2
 67
     7
 79
     5
170
     0
171
     0
290
     0
174
     0
 93
        1
 44
50.0
173
     0
291
     1
 45
0.0
1001
ACAD
1000
AcDbSavedByObjectVersion
1070
     0
  0
VISUALSTYLE
  5
3A
102
{ACAD_REACTORS
330
2A
102
}
102
{ACAD_XDICTIONARY
360
7B2
102
}
330
2A
100
AcDbVisualStyle
  2
ColorChange
 70
    16
 71
     2
 72
     2
 73
     3
 90
        0
 40
-0.6
 41
-30.0
 62
     5
 63
     8
 74
     1
 91
        4
 64
     7
 65
   257
 75
     1
175
     1
 42
1.0
 92
        8
 66
     8
 43
1.0
 76
     1
 77
     6
 78
     2
 67
     7
 79
     5
170
     0
171
     0
290
     0
174
     0
 93
        1
 44
0.0
173
     0
291
     1
 45
0.0
1001
ACAD
1000
AcDbSavedByObjectVersion
1070
     0
  0
VISUALSTYLE
  5
34
102
{ACAD_REACTORS
330
2A
102
}
102
{ACAD_XDICTIONARY
360
7A6
102
}
330
2A
100
AcDbVisualStyle
  2
Conceptual
 70
     9
 71
     3
 72
     2
 73
     0
 90
        0
 40
-0.6
 41
-30.0
 62
     5
 63
     7
 74
     2
 91
        2
 64
     7
 65
   257
 75
     1
175
     1
 42
40.0
 92
        8
 66
     7
 43
1.0
 76
     1
 77
     6
 78
     2
 67
     7
 79
     3
170
     0
171
     0
290
     0
174
     0
 93
        1
 44
0.0
173
     0
291
     0
 45
0.0
1001
ACAD
1000
AcDbSavedByObjectVersion
1070
     0
  0
VISUALSTYLE
  5
35
102
{ACAD_REACTORS
330
2A
102
}
102
{ACAD_XDICTIONARY
360
7A8
102
}
330
2A
100
AcDbVisualStyle
  2
Dim
 70
    11
 71
     2
 72
     2
 73
     0
 90
        0
 40
-0.6
 41
-30.0
 62
     5
 63
     7
 74
     1
 91
        4
 64
     7
 65
   257
 75
     1
175
     1
 42
1.0
 92
        8
 66
     7
 43
1.0
 76
     1
 77
     6
 78
     2
 67
     7
 79
     5
170
     0
171
     0
290
     0
174
     0
 93
        1
 44
-50.0
173
     0
291
     1
 45
0.0
1001
ACAD
1000
AcDbSavedByObjectVersion
1070
     0
  0
VISUALSTYLE
  5
39
102
{ACAD_REACTORS
330
2A
102
}
102
{ACAD_XDICTIONARY
360
7B0
102
}
330
2A
100
AcDbVisualStyle
  2
Facepattern
 70
    15
 71
     2
 72
     2
 73
     0
 90
        0
 40
-0.6
 41
-30.0
 62
     5
 63
     7
 74
     1
 91
        4
 64
     7
 65
   257
 75
     1
175
     1
 42
1.0
 92
        8
 66
     7
 43
1.0
 76
     1
 77
     6
 78
     2
 67
     7
 79
     5
170
     0
171
     0
290
     0
174
     0
 93
        1
 44
0.0
173
     0
291
     1
 45
0.0
1001
ACAD
1000
AcDbSavedByObjectVersion
1070
     0
  0
VISUALSTYLE
  5
2B
102
{ACAD_REACTORS
330
2A
102
}
102
{ACAD_XDICTIONARY
360
794
102
}
330
2A
100
AcDbVisualStyle
  2
Flat
 70
     0
 71
     2
 72
     1
 73
     1
 90
        2
 40
-0.6
 41
30.0
 62
     5
 63
     7
 74
     0
 91
        4
 64
     7
 65
   257
 75
     1
175
     1
 42
1.0
 92
        8
 66
     7
 43
1.0
 76
     1
 77
     6
 78
     2
 67
     7
 79
     5
170
     0
171
     0
290
     0
174
     0
 93
       13
 44
0.0
173
     0
291
     1
 45
0.0
1001
ACAD
1000
AcDbSavedByObjectVersion
1070
     0
  0
VISUALSTYLE
  5
2C
102
{ACAD_REACTORS
330
2A
102
}
102
{ACAD_XDICTIONARY
360
796
102
}
330
2A
100
AcDbVisualStyle
  2
FlatWithEdges
 70
     1
 71
     2
 72
     1
 73
     1
 90
        2
 40
-0.6
 41
30.0
 62
     5
 63
     7
 74
     1
 91
        4
 64
     7
 65
   257
 75
     1
175
     1
 42
1.0
 92
        0
 66
   257
 43
1.0
 76
     1
 77
     6
 78
     2
 67
     7
 79
     5
170
     0
171
     0
290
     0
174
     0
 93
       13
 44
0.0
173
     0
291
     1
 45
0.0
1001
ACAD
1000
AcDbSavedByObjectVersion
1070
     0
  0
VISUALSTYLE
  5
2D
102
{ACAD_REACTORS
330
2A
102
}
102
{ACAD_XDICTIONARY
360
798
102
}
330
2A
100
AcDbVisualStyle
  2
Gouraud
 70
     2
 71
     2
 72
     2
 73
     1
 90
        2
 40
-0.6
 41
30.0
 62
     5
 63
     7
 74
     0
 91
        4
 64
     7
 65
   257
 75
     1
175
     1
 42
1.0
 92
        0
 66
     7
 43
1.0
 76
     1
 77
     6
 78
     2
 67
     7
 79
     5
170
     0
171
     0
290
     0
174
     0
 93
       13
 44
0.0
173
     0
291
     1
 45
0.0
1001
ACAD
1000
AcDbSavedByObjectVersion
1070
     0
  0
VISUALSTYLE
  5
2E
102
{ACAD_REACTORS
330
2A
102
}
102
{ACAD_XDICTIONARY
360
79A
102
}
330
2A
100
AcDbVisualStyle
  2
GouraudWithEdges
 70
     3
 71
     2
 72
     2
 73
     1
 90
        2
 40
-0.6
 41
30.0
 62
     5
 63
     7
 74
     1
 91
        4
 64
     7
 65
   257
 75
     1
175
     1
 42
1.0
 92
        0
 66
   257
 43
1.0
 76
     1
 77
     6
 78
     2
 67
     7
 79
     5
170
     0
171
     0
290
     0
174
     0
 93
       13
 44
0.0
173
     0
291
     1
 45
0.0
1001
ACAD
1000
AcDbSavedByObjectVersion
1070
     0
  0
VISUALSTYLE
  5
38
102
{ACAD_REACTORS
330
2A
102
}
102
{ACAD_XDICTIONARY
360
7AE
102
}
330
2A
100
AcDbVisualStyle
  2
Linepattern
 70
    14
 71
     2
 72
     2
 73
     0
 90
        0
 40
-0.6
 41
-30.0
 62
     5
 63
     7
 74
     1
 91
        4
 64
     7
 65
   257
 75
     7
175
     7
 42
1.0
 92
        8
 66
     7
 43
1.0
 76
     1
 77
     6
 78
     2
 67
     7
 79
     5
170
     0
171
     0
290
     0
174
     0
 93
        1
 44
0.0
173
     0
291
     1
 45
0.0
1001
ACAD
1000
AcDbSavedByObjectVersion
1070
     0
  0
VISUALSTYLE
  5
33
102
{ACAD_REACTORS
330
2A
102
}
102
{ACAD_XDICTIONARY
360
7A4
102
}
330
2A
100
AcDbVisualStyle
  2
Realistic
 70
     8
 71
     2
 72
     2
 73
     0
 90
        0
 40
-0.6
 41
-30.0
 62
     5
 63
     7
 74
     1
 91
        0
 64
     7
 65
   257
 75
     1
175
     1
 42
1.0
 92
        8
 66
     8
 43
1.0
 76
     1
 77
     6
 78
     2
 67
     7
 79
     5
170
     0
171
     0
290
     0
174
     0
 93
       13
 44
0.0
173
     0
291
     0
 45
0.0
1001
ACAD
1000
AcDbSavedByObjectVersion
1070
     0
  0
VISUALSTYLE
  5
37
102
{ACAD_REACTORS
330
2A
102
}
102
{ACAD_XDICTIONARY
360
7AC
102
}
330
2A
100
AcDbVisualStyle
  2
Thicken
 70
    13
 71
     2
 72
     2
 73
     0
 90
        0
 40
-0.6
 41
-30.0
 62
     5
 63
     7
 74
     1
 91
        4
 64
     7
 65
   257
 75
     1
175
     1
 42
1.0
 92
       12
 66
     7
 43
1.0
 76
     1
 77
     6
 78
     2
 67
     7
 79
     5
170
     0
171
     0
290
     0
174
     0
 93
        1
 44
0.0
173
     0
291
     1
 45
0.0
1001
ACAD
1000
AcDbSavedByObjectVersion
1070
     0
  0
DICTIONARYVAR
  5
792
102
{ACAD_REACTORS
330
78F
102
}
330
78F
100
DictionaryVariables
280
     0
  1
2
  0
DICTIONARYVAR
  5
793
102
{ACAD_REACTORS
330
78F
102
}
330
78F
100
DictionaryVariables
280
     0
  1
1
  0
DICTIONARY
  5
7B6
330
3D
100
AcDbDictionary
280
     1
281
     1
  3
ACAD_XREC_ROUNDTRIP
360
7B7
  0
DICTIONARY
  5
7B4
330
3C
100
AcDbDictionary
280
     1
281
     1
  3
ACAD_XREC_ROUNDTRIP
360
7B5
  0
DICTIONARY
  5
7B8
330
3E
100
AcDbDictionary
280
     1
281
     1
  3
ACAD_XREC_ROUNDTRIP
360
7B9
  0
DICTIONARY
  5
79C
330
2F
100
AcDbDictionary
280
     1
281
     1
  3
ACAD_XREC_ROUNDTRIP
360
79D
  0
DICTIONARY
  5
7A0
330
31
100
AcDbDictionary
280
     1
281
     1
  3
ACAD_XREC_ROUNDTRIP
360
7A1
  0
DICTIONARY
  5
79E
330
30
100
AcDbDictionary
280
     1
281
     1
  3
ACAD_XREC_ROUNDTRIP
360
79F
  0
DICTIONARY
  5
7A2
330
32
100
AcDbDictionary
280
     1
281
     1
  3
ACAD_XREC_ROUNDTRIP
360
7A3
  0
DICTIONARY
  5
7AA
330
36
100
AcDbDictionary
280
     1
281
     1
  3
ACAD_XREC_ROUNDTRIP
360
7AB
  0
DICTIONARY
  5
7B2
330
3A
100
AcDbDictionary
280
     1
281
     1
  3
ACAD_XREC_ROUNDTRIP
360
7B3
  0
DICTIONARY
  5
7A6
330
34
100
AcDbDictionary
280
     1
281
     1
  3
ACAD_XREC_ROUNDTRIP
360
7A7
  0
DICTIONARY
  5
7A8
330
35
100
AcDbDictionary
280
     1
281
     1
  3
ACAD_XREC_ROUNDTRIP
360
7A9
  0
DICTIONARY
  5
7B0
330
39
100
AcDbDictionary
280
     1
281
     1
  3
ACAD_XREC_ROUNDTRIP
360
7B1
  0
DICTIONARY
  5
794
330
2B
100
AcDbDictionary
280
     1
281
     1
  3
ACAD_XREC_ROUNDTRIP
360
795
  0
DICTIONARY
  5
796
330
2C
100
AcDbDictionary
280
     1
281
     1
  3
ACAD_XREC_ROUNDTRIP
360
797
  0
DICTIONARY
  5
798
330
2D
100
AcDbDictionary
280
     1
281
     1
  3
ACAD_XREC_ROUNDTRIP
360
799
  0
DICTIONARY
  5
79A
330
2E
100
AcDbDictionary
280
     1
281
     1
  3
ACAD_XREC_ROUNDTRIP
360
79B
  0
DICTIONARY
  5
7AE
330
38
100
AcDbDictionary
280
     1
281
     1
  3
ACAD_XREC_ROUNDTRIP
360
7AF
  0
DICTIONARY
  5
7A4
330
33
100
AcDbDictionary
280
     1
281
     1
  3
ACAD_XREC_ROUNDTRIP
360
7A5
  0
DICTIONARY
  5
7AC
330
37
100
AcDbDictionary
280
     1
281
     1
  3
ACAD_XREC_ROUNDTRIP
360
7AD
  0
XRECORD
  5
7B7
102
{ACAD_REACTORS
330
7B6
102
}
330
7B6
100
AcDbXrecord
280
     1
102
MATERIAL
148
0.0
149
0.0
149
0.0
 93
        0
 94
      127
282
     0
 72
     1
 77
     1
171
     1
175
     1
179
     1
273
     0
  0
XRECORD
  5
7B5
102
{ACAD_REACTORS
330
7B4
102
}
330
7B4
100
AcDbXrecord
280
     1
102
MATERIAL
148
0.0
149
0.0
149
0.0
 93
        0
 94
      127
282
     0
 72
     1
 77
     1
171
     1
175
     1
179
     1
273
     0
  0
XRECORD
  5
7B9
102
{ACAD_REACTORS
330
7B8
102
}
330
7B8
100
AcDbXrecord
280
     1
102
MATERIAL
148
0.0
149
0.0
149
0.0
 93
        0
 94
      127
282
     0
 72
     1
 77
     1
171
     1
175
     1
179
     1
273
     0
  0
XRECORD
  5
79D
102
{ACAD_REACTORS
330
79C
102
}
330
79C
100
AcDbXrecord
280
     1
102
RTVSPropertyOp0
 70
     1
102
RTVSPropertyOp1
 70
     1
102
RTVSPropertyOp2
 70
     1
102
RTVSPropertyOp3
 70
     1
102
RTVSPropertyOp4
 70
     1
102
RTVSPropertyOp5
 70
     1
102
RTVSPropertyOp6
 70
     1
102
RTVSPropertyOp7
 70
     1
102
RTVSPropertyOp8
 70
     1
102
RTVSPropertyOp9
 70
     1
102
RTVSPropertyOp10
 70
     1
102
RTVSPropertyOp11
 70
     1
102
RTVSPropertyOp12
 70
     1
102
RTVSPropertyOp13
 70
     1
102
RTVSPropertyOp14
 70
     1
102
RTVSPropertyOp15
 70
     1
102
RTVSPropertyOp16
 70
     1
102
RTVSPropertyOp17
 70
     1
102
RTVSPropertyOp18
 70
     1
102
RTVSPropertyOp19
 70
     1
102
RTVSPropertyOp20
 70
     1
102
RTVSPropertyOp21
 70
     1
102
RTVSPropertyOp22
 70
     1
102
RTVSPropertyOp23
 70
     1
102
RTVSPropertyOp24
 70
     1
102
RTVSPropertyOp25
 70
     1
102
RTVSPropertyOp26
 70
     1
102
RTVSPropertyOp27
 70
     1
102
RTVSPropertyOp28
 70
     1
102
RTVSPropertyOp29
 70
     1
102
RTVSPropertyOp30
 70
     1
102
RTVSPropertyOp31
 70
     1
102
RTVSPropertyOp32
 70
     1
  0
XRECORD
  5
7A1
102
{ACAD_REACTORS
330
7A0
102
}
330
7A0
100
AcDbXrecord
280
     1
102
RTVSPropertyOp0
 70
     1
102
RTVSPropertyOp1
 70
     1
102
RTVSPropertyOp2
 70
     1
102
RTVSPropertyOp3
 70
     1
102
RTVSPropertyOp4
 70
     1
102
RTVSPropertyOp5
 70
     1
102
RTVSPropertyOp6
 70
     1
102
RTVSPropertyOp7
 70
     1
102
RTVSPropertyOp8
 70
     1
102
RTVSPropertyOp9
 70
     1
102
RTVSPropertyOp10
 70
     1
102
RTVSPropertyOp11
 70
     1
102
RTVSPropertyOp12
 70
     1
102
RTVSPropertyOp13
 70
     1
102
RTVSPropertyOp14
 70
     1
102
RTVSPropertyOp15
 70
     1
102
RTVSPropertyOp16
 70
     1
102
RTVSPropertyOp17
 70
     1
102
RTVSPropertyOp18
 70
     1
102
RTVSPropertyOp19
 70
     1
102
RTVSPropertyOp20
 70
     1
102
RTVSPropertyOp21
 70
     1
102
RTVSPropertyOp22
 70
     1
102
RTVSPropertyOp23
 70
     1
102
RTVSPropertyOp24
 70
     1
102
RTVSPropertyOp25
 70
     1
102
RTVSPropertyOp26
 70
     1
102
RTVSPropertyOp27
 70
     1
102
RTVSPropertyOp28
 70
     1
102
RTVSPropertyOp29
 70
     1
102
RTVSPropertyOp30
 70
     1
102
RTVSPropertyOp31
 70
     1
102
RTVSPropertyOp32
 70
     1
  0
XRECORD
  5
79F
102
{ACAD_REACTORS
330
79E
102
}
330
79E
100
AcDbXrecord
280
     1
102
RTVSPropertyOp0
 70
     1
102
RTVSPropertyOp1
 70
     1
102
RTVSPropertyOp2
 70
     1
102
RTVSPropertyOp3
 70
     1
102
RTVSPropertyOp4
 70
     1
102
RTVSPropertyOp5
 70
     1
102
RTVSPropertyOp6
 70
     1
102
RTVSPropertyOp7
 70
     1
102
RTVSPropertyOp8
 70
     1
102
RTVSPropertyOp9
 70
     1
102
RTVSPropertyOp10
 70
     1
102
RTVSPropertyOp11
 70
     1
102
RTVSPropertyOp12
 70
     1
102
RTVSPropertyOp13
 70
     1
102
RTVSPropertyOp14
 70
     1
102
RTVSPropertyOp15
 70
     1
102
RTVSPropertyOp16
 70
     1
102
RTVSPropertyOp17
 70
     1
102
RTVSPropertyOp18
 70
     1
102
RTVSPropertyOp19
 70
     1
102
RTVSPropertyOp20
 70
     1
102
RTVSPropertyOp21
 70
     1
102
RTVSPropertyOp22
 70
     1
102
RTVSPropertyOp23
 70
     1
102
RTVSPropertyOp24
 70
     1
102
RTVSPropertyOp25
 70
     1
102
RTVSPropertyOp26
 70
     1
102
RTVSPropertyOp27
 70
     1
102
RTVSPropertyOp28
 70
     1
102
RTVSPropertyOp29
 70
     1
102
RTVSPropertyOp30
 70
     1
102
RTVSPropertyOp31
 70
     1
102
RTVSPropertyOp32
 70
     1
  0
XRECORD
  5
7A3
102
{ACAD_REACTORS
330
7A2
102
}
330
7A2
100
AcDbXrecord
280
     1
102
RTVSPropertyOp0
 70
     1
102
RTVSPropertyOp1
 70
     1
102
RTVSPropertyOp2
 70
     1
102
RTVSPropertyOp3
 70
     1
102
RTVSPropertyOp4
 70
     1
102
RTVSPropertyOp5
 70
     1
102
RTVSPropertyOp6
 70
     1
102
RTVSPropertyOp7
 70
     1
102
RTVSPropertyOp8
 70
     1
102
RTVSPropertyOp9
 70
     1
102
RTVSPropertyOp10
 70
     1
102
RTVSPropertyOp11
 70
     1
102
RTVSPropertyOp12
 70
     1
102
RTVSPropertyOp13
 70
     1
102
RTVSPropertyOp14
 70
     1
102
RTVSPropertyOp15
 70
     1
102
RTVSPropertyOp16
 70
     1
102
RTVSPropertyOp17
 70
     1
102
RTVSPropertyOp18
 70
     1
102
RTVSPropertyOp19
 70
     1
102
RTVSPropertyOp20
 70
     1
102
RTVSPropertyOp21
 70
     1
102
RTVSPropertyOp22
 70
     1
102
RTVSPropertyOp23
 70
     1
102
RTVSPropertyOp24
 70
     1
102
RTVSPropertyOp25
 70
     1
102
RTVSPropertyOp26
 70
     1
102
RTVSPropertyOp27
 70
     1
102
RTVSPropertyOp28
 70
     1
102
RTVSPropertyOp29
 70
     1
102
RTVSPropertyOp30
 70
     1
102
RTVSPropertyOp31
 70
     1
102
RTVSPropertyOp32
 70
     1
  0
XRECORD
  5
7AB
102
{ACAD_REACTORS
330
7AA
102
}
330
7AA
100
AcDbXrecord
280
     1
102
RTVSPropertyOp0
 70
     1
102
RTVSPropertyOp1
 70
     1
102
RTVSPropertyOp2
 70
     1
102
RTVSPropertyOp3
 70
     1
102
RTVSPropertyOp4
 70
     1
102
RTVSPropertyOp5
 70
     1
102
RTVSPropertyOp6
 70
     1
102
RTVSPropertyOp7
 70
     1
102
RTVSPropertyOp8
 70
     1
102
RTVSPropertyOp9
 70
     1
102
RTVSPropertyOp10
 70
     1
102
RTVSPropertyOp11
 70
     1
102
RTVSPropertyOp12
 70
     1
102
RTVSPropertyOp13
 70
     1
102
RTVSPropertyOp14
 70
     1
102
RTVSPropertyOp15
 70
     1
102
RTVSPropertyOp16
 70
     1
102
RTVSPropertyOp17
 70
     1
102
RTVSPropertyOp18
 70
     1
102
RTVSPropertyOp19
 70
     1
102
RTVSPropertyOp20
 70
     1
102
RTVSPropertyOp21
 70
     1
102
RTVSPropertyOp22
 70
     1
102
RTVSPropertyOp23
 70
     1
102
RTVSPropertyOp24
 70
     1
102
RTVSPropertyOp25
 70
     1
102
RTVSPropertyOp26
 70
     1
102
RTVSPropertyOp27
 70
     1
102
RTVSPropertyOp28
 70
     1
102
RTVSPropertyOp29
 70
     1
102
RTVSPropertyOp30
 70
     1
102
RTVSPropertyOp31
 70
     1
102
RTVSPropertyOp32
 70
     1
  0
XRECORD
  5
7B3
102
{ACAD_REACTORS
330
7B2
102
}
330
7B2
100
AcDbXrecord
280
     1
102
RTVSPropertyOp0
 70
     1
102
RTVSPropertyOp1
 70
     1
102
RTVSPropertyOp2
 70
     1
102
RTVSPropertyOp3
 70
     1
102
RTVSPropertyOp4
 70
     1
102
RTVSPropertyOp5
 70
     1
102
RTVSPropertyOp6
 70
     1
102
RTVSPropertyOp7
 70
     1
102
RTVSPropertyOp8
 70
     1
102
RTVSPropertyOp9
 70
     1
102
RTVSPropertyOp10
 70
     1
102
RTVSPropertyOp11
 70
     1
102
RTVSPropertyOp12
 70
     1
102
RTVSPropertyOp13
 70
     1
102
RTVSPropertyOp14
 70
     1
102
RTVSPropertyOp15
 70
     1
102
RTVSPropertyOp16
 70
     1
102
RTVSPropertyOp17
 70
     1
102
RTVSPropertyOp18
 70
     1
102
RTVSPropertyOp19
 70
     1
102
RTVSPropertyOp20
 70
     1
102
RTVSPropertyOp21
 70
     1
102
RTVSPropertyOp22
 70
     1
102
RTVSPropertyOp23
 70
     1
102
RTVSPropertyOp24
 70
     1
102
RTVSPropertyOp25
 70
     1
102
RTVSPropertyOp26
 70
     1
102
RTVSPropertyOp27
 70
     1
102
RTVSPropertyOp28
 70
     1
102
RTVSPropertyOp29
 70
     1
102
RTVSPropertyOp30
 70
     1
102
RTVSPropertyOp31
 70
     1
102
RTVSPropertyOp32
 70
     1
  0
XRECORD
  5
7A7
102
{ACAD_REACTORS
330
7A6
102
}
330
7A6
100
AcDbXrecord
280
     1
102
RTVSPropertyOp0
 70
     1
102
RTVSPropertyOp1
 70
     1
102
RTVSPropertyOp2
 70
     1
102
RTVSPropertyOp3
 70
     1
102
RTVSPropertyOp4
 70
     1
102
RTVSPropertyOp5
 70
     1
102
RTVSPropertyOp6
 70
     1
102
RTVSPropertyOp7
 70
     1
102
RTVSPropertyOp8
 70
     1
102
RTVSPropertyOp9
 70
     1
102
RTVSPropertyOp10
 70
     1
102
RTVSPropertyOp11
 70
     1
102
RTVSPropertyOp12
 70
     1
102
RTVSPropertyOp13
 70
     1
102
RTVSPropertyOp14
 70
     1
102
RTVSPropertyOp15
 70
     1
102
RTVSPropertyOp16
 70
     1
102
RTVSPropertyOp17
 70
     1
102
RTVSPropertyOp18
 70
     1
102
RTVSPropertyOp19
 70
     1
102
RTVSPropertyOp20
 70
     1
102
RTVSPropertyOp21
 70
     1
102
RTVSPropertyOp22
 70
     1
102
RTVSPropertyOp23
 70
     1
102
RTVSPropertyOp24
 70
     1
102
RTVSPropertyOp25
 70
     1
102
RTVSPropertyOp26
 70
     1
102
RTVSPropertyOp27
 70
     1
102
RTVSPropertyOp28
 70
     1
102
RTVSPropertyOp29
 70
     1
102
RTVSPropertyOp30
 70
     1
102
RTVSPropertyOp31
 70
     1
102
RTVSPropertyOp32
 70
     1
  0
XRECORD
  5
7A9
102
{ACAD_REACTORS
330
7A8
102
}
330
7A8
100
AcDbXrecord
280
     1
102
RTVSPropertyOp0
 70
     1
102
RTVSPropertyOp1
 70
     1
102
RTVSPropertyOp2
 70
     1
102
RTVSPropertyOp3
 70
     1
102
RTVSPropertyOp4
 70
     1
102
RTVSPropertyOp5
 70
     1
102
RTVSPropertyOp6
 70
     1
102
RTVSPropertyOp7
 70
     1
102
RTVSPropertyOp8
 70
     1
102
RTVSPropertyOp9
 70
     1
102
RTVSPropertyOp10
 70
     1
102
RTVSPropertyOp11
 70
     1
102
RTVSPropertyOp12
 70
     1
102
RTVSPropertyOp13
 70
     1
102
RTVSPropertyOp14
 70
     1
102
RTVSPropertyOp15
 70
     1
102
RTVSPropertyOp16
 70
     1
102
RTVSPropertyOp17
 70
     1
102
RTVSPropertyOp18
 70
     1
102
RTVSPropertyOp19
 70
     1
102
RTVSPropertyOp20
 70
     1
102
RTVSPropertyOp21
 70
     1
102
RTVSPropertyOp22
 70
     1
102
RTVSPropertyOp23
 70
     1
102
RTVSPropertyOp24
 70
     1
102
RTVSPropertyOp25
 70
     1
102
RTVSPropertyOp26
 70
     1
102
RTVSPropertyOp27
 70
     1
102
RTVSPropertyOp28
 70
     1
102
RTVSPropertyOp29
 70
     1
102
RTVSPropertyOp30
 70
     1
102
RTVSPropertyOp31
 70
     1
102
RTVSPropertyOp32
 70
     1
  0
XRECORD
  5
7B1
102
{ACAD_REACTORS
330
7B0
102
}
330
7B0
100
AcDbXrecord
280
     1
102
RTVSPropertyOp0
 70
     1
102
RTVSPropertyOp1
 70
     1
102
RTVSPropertyOp2
 70
     1
102
RTVSPropertyOp3
 70
     1
102
RTVSPropertyOp4
 70
     1
102
RTVSPropertyOp5
 70
     1
102
RTVSPropertyOp6
 70
     1
102
RTVSPropertyOp7
 70
     1
102
RTVSPropertyOp8
 70
     1
102
RTVSPropertyOp9
 70
     1
102
RTVSPropertyOp10
 70
     1
102
RTVSPropertyOp11
 70
     1
102
RTVSPropertyOp12
 70
     1
102
RTVSPropertyOp13
 70
     1
102
RTVSPropertyOp14
 70
     1
102
RTVSPropertyOp15
 70
     1
102
RTVSPropertyOp16
 70
     1
102
RTVSPropertyOp17
 70
     1
102
RTVSPropertyOp18
 70
     1
102
RTVSPropertyOp19
 70
     1
102
RTVSPropertyOp20
 70
     1
102
RTVSPropertyOp21
 70
     1
102
RTVSPropertyOp22
 70
     1
102
RTVSPropertyOp23
 70
     1
102
RTVSPropertyOp24
 70
     1
102
RTVSPropertyOp25
 70
     1
102
RTVSPropertyOp26
 70
     1
102
RTVSPropertyOp27
 70
     1
102
RTVSPropertyOp28
 70
     1
102
RTVSPropertyOp29
 70
     1
102
RTVSPropertyOp30
 70
     1
102
RTVSPropertyOp31
 70
     1
102
RTVSPropertyOp32
 70
     1
  0
XRECORD
  5
795
102
{ACAD_REACTORS
330
794
102
}
330
794
100
AcDbXrecord
280
     1
102
RTVSPropertyOp0
 70
     1
102
RTVSPropertyOp1
 70
     1
102
RTVSPropertyOp2
 70
     1
102
RTVSPropertyOp3
 70
     1
102
RTVSPropertyOp4
 70
     1
102
RTVSPropertyOp5
 70
     1
102
RTVSPropertyOp6
 70
     1
102
RTVSPropertyOp7
 70
     1
102
RTVSPropertyOp8
 70
     1
102
RTVSPropertyOp9
 70
     1
102
RTVSPropertyOp10
 70
     1
102
RTVSPropertyOp11
 70
     1
102
RTVSPropertyOp12
 70
     1
102
RTVSPropertyOp13
 70
     1
102
RTVSPropertyOp14
 70
     1
102
RTVSPropertyOp15
 70
     1
102
RTVSPropertyOp16
 70
     1
102
RTVSPropertyOp17
 70
     1
102
RTVSPropertyOp18
 70
     1
102
RTVSPropertyOp19
 70
     1
102
RTVSPropertyOp20
 70
     1
102
RTVSPropertyOp21
 70
     1
102
RTVSPropertyOp22
 70
     1
102
RTVSPropertyOp23
 70
     1
102
RTVSPropertyOp24
 70
     1
102
RTVSPropertyOp25
 70
     1
102
RTVSPropertyOp26
 70
     1
102
RTVSPropertyOp27
 70
     1
102
RTVSPropertyOp28
 70
     1
102
RTVSPropertyOp29
 70
     1
102
RTVSPropertyOp30
 70
     1
102
RTVSPropertyOp31
 70
     1
102
RTVSPropertyOp32
 70
     1
  0
XRECORD
  5
797
102
{ACAD_REACTORS
330
796
102
}
330
796
100
AcDbXrecord
280
     1
102
RTVSPropertyOp0
 70
     1
102
RTVSPropertyOp1
 70
     1
102
RTVSPropertyOp2
 70
     1
102
RTVSPropertyOp3
 70
     1
102
RTVSPropertyOp4
 70
     1
102
RTVSPropertyOp5
 70
     1
102
RTVSPropertyOp6
 70
     1
102
RTVSPropertyOp7
 70
     1
102
RTVSPropertyOp8
 70
     1
102
RTVSPropertyOp9
 70
     1
102
RTVSPropertyOp10
 70
     1
102
RTVSPropertyOp11
 70
     1
102
RTVSPropertyOp12
 70
     1
102
RTVSPropertyOp13
 70
     1
102
RTVSPropertyOp14
 70
     1
102
RTVSPropertyOp15
 70
     1
102
RTVSPropertyOp16
 70
     1
102
RTVSPropertyOp17
 70
     1
102
RTVSPropertyOp18
 70
     1
102
RTVSPropertyOp19
 70
     1
102
RTVSPropertyOp20
 70
     1
102
RTVSPropertyOp21
 70
     1
102
RTVSPropertyOp22
 70
     1
102
RTVSPropertyOp23
 70
     1
102
RTVSPropertyOp24
 70
     1
102
RTVSPropertyOp25
 70
     1
102
RTVSPropertyOp26
 70
     1
102
RTVSPropertyOp27
 70
     1
102
RTVSPropertyOp28
 70
     1
102
RTVSPropertyOp29
 70
     1
102
RTVSPropertyOp30
 70
     1
102
RTVSPropertyOp31
 70
     1
102
RTVSPropertyOp32
 70
     1
  0
XRECORD
  5
799
102
{ACAD_REACTORS
330
798
102
}
330
798
100
AcDbXrecord
280
     1
102
RTVSPropertyOp0
 70
     1
102
RTVSPropertyOp1
 70
     1
102
RTVSPropertyOp2
 70
     1
102
RTVSPropertyOp3
 70
     1
102
RTVSPropertyOp4
 70
     1
102
RTVSPropertyOp5
 70
     1
102
RTVSPropertyOp6
 70
     1
102
RTVSPropertyOp7
 70
     1
102
RTVSPropertyOp8
 70
     1
102
RTVSPropertyOp9
 70
     1
102
RTVSPropertyOp10
 70
     1
102
RTVSPropertyOp11
 70
     1
102
RTVSPropertyOp12
 70
     1
102
RTVSPropertyOp13
 70
     1
102
RTVSPropertyOp14
 70
     1
102
RTVSPropertyOp15
 70
     1
102
RTVSPropertyOp16
 70
     1
102
RTVSPropertyOp17
 70
     1
102
RTVSPropertyOp18
 70
     1
102
RTVSPropertyOp19
 70
     1
102
RTVSPropertyOp20
 70
     1
102
RTVSPropertyOp21
 70
     1
102
RTVSPropertyOp22
 70
     1
102
RTVSPropertyOp23
 70
     1
102
RTVSPropertyOp24
 70
     1
102
RTVSPropertyOp25
 70
     1
102
RTVSPropertyOp26
 70
     1
102
RTVSPropertyOp27
 70
     1
102
RTVSPropertyOp28
 70
     1
102
RTVSPropertyOp29
 70
     1
102
RTVSPropertyOp30
 70
     1
102
RTVSPropertyOp31
 70
     1
102
RTVSPropertyOp32
 70
     1
  0
XRECORD
  5
79B
102
{ACAD_REACTORS
330
79A
102
}
330
79A
100
AcDbXrecord
280
     1
102
RTVSPropertyOp0
 70
     1
102
RTVSPropertyOp1
 70
     1
102
RTVSPropertyOp2
 70
     1
102
RTVSPropertyOp3
 70
     1
102
RTVSPropertyOp4
 70
     1
102
RTVSPropertyOp5
 70
     1
102
RTVSPropertyOp6
 70
     1
102
RTVSPropertyOp7
 70
     1
102
RTVSPropertyOp8
 70
     1
102
RTVSPropertyOp9
 70
     1
102
RTVSPropertyOp10
 70
     1
102
RTVSPropertyOp11
 70
     1
102
RTVSPropertyOp12
 70
     1
102
RTVSPropertyOp13
 70
     1
102
RTVSPropertyOp14
 70
     1
102
RTVSPropertyOp15
 70
     1
102
RTVSPropertyOp16
 70
     1
102
RTVSPropertyOp17
 70
     1
102
RTVSPropertyOp18
 70
     1
102
RTVSPropertyOp19
 70
     1
102
RTVSPropertyOp20
 70
     1
102
RTVSPropertyOp21
 70
     1
102
RTVSPropertyOp22
 70
     1
102
RTVSPropertyOp23
 70
     1
102
RTVSPropertyOp24
 70
     1
102
RTVSPropertyOp25
 70
     1
102
RTVSPropertyOp26
 70
     1
102
RTVSPropertyOp27
 70
     1
102
RTVSPropertyOp28
 70
     1
102
RTVSPropertyOp29
 70
     1
102
RTVSPropertyOp30
 70
     1
102
RTVSPropertyOp31
 70
     1
102
RTVSPropertyOp32
 70
     1
  0
XRECORD
  5
7AF
102
{ACAD_REACTORS
330
7AE
102
}
330
7AE
100
AcDbXrecord
280
     1
102
RTVSPropertyOp0
 70
     1
102
RTVSPropertyOp1
 70
     1
102
RTVSPropertyOp2
 70
     1
102
RTVSPropertyOp3
 70
     1
102
RTVSPropertyOp4
 70
     1
102
RTVSPropertyOp5
 70
     1
102
RTVSPropertyOp6
 70
     1
102
RTVSPropertyOp7
 70
     1
102
RTVSPropertyOp8
 70
     1
102
RTVSPropertyOp9
 70
     1
102
RTVSPropertyOp10
 70
     1
102
RTVSPropertyOp11
 70
     1
102
RTVSPropertyOp12
 70
     1
102
RTVSPropertyOp13
 70
     1
102
RTVSPropertyOp14
 70
     1
102
RTVSPropertyOp15
 70
     1
102
RTVSPropertyOp16
 70
     1
102
RTVSPropertyOp17
 70
     1
102
RTVSPropertyOp18
 70
     1
102
RTVSPropertyOp19
 70
     1
102
RTVSPropertyOp20
 70
     1
102
RTVSPropertyOp21
 70
     1
102
RTVSPropertyOp22
 70
     1
102
RTVSPropertyOp23
 70
     1
102
RTVSPropertyOp24
 70
     1
102
RTVSPropertyOp25
 70
     1
102
RTVSPropertyOp26
 70
     1
102
RTVSPropertyOp27
 70
     1
102
RTVSPropertyOp28
 70
     1
102
RTVSPropertyOp29
 70
     1
102
RTVSPropertyOp30
 70
     1
102
RTVSPropertyOp31
 70
     1
102
RTVSPropertyOp32
 70
     1
  0
XRECORD
  5
7A5
102
{ACAD_REACTORS
330
7A4
102
}
330
7A4
100
AcDbXrecord
280
     1
102
RTVSPropertyOp0
 70
     1
102
RTVSPropertyOp1
 70
     1
102
RTVSPropertyOp2
 70
     1
102
RTVSPropertyOp3
 70
     1
102
RTVSPropertyOp4
 70
     1
102
RTVSPropertyOp5
 70
     1
102
RTVSPropertyOp6
 70
     1
102
RTVSPropertyOp7
 70
     1
102
RTVSPropertyOp8
 70
     1
102
RTVSPropertyOp9
 70
     1
102
RTVSPropertyOp10
 70
     1
102
RTVSPropertyOp11
 70
     1
102
RTVSPropertyOp12
 70
     1
102
RTVSPropertyOp13
 70
     1
102
RTVSPropertyOp14
 70
     1
102
RTVSPropertyOp15
 70
     1
102
RTVSPropertyOp16
 70
     1
102
RTVSPropertyOp17
 70
     1
102
RTVSPropertyOp18
 70
     1
102
RTVSPropertyOp19
 70
     1
102
RTVSPropertyOp20
 70
     1
102
RTVSPropertyOp21
 70
     1
102
RTVSPropertyOp22
 70
     1
102
RTVSPropertyOp23
 70
     1
102
RTVSPropertyOp24
 70
     1
102
RTVSPropertyOp25
 70
     1
102
RTVSPropertyOp26
 70
     1
102
RTVSPropertyOp27
 70
     1
102
RTVSPropertyOp28
 70
     1
102
RTVSPropertyOp29
 70
     1
102
RTVSPropertyOp30
 70
     1
102
RTVSPropertyOp31
 70
     1
102
RTVSPropertyOp32
 70
     1
  0
XRECORD
  5
7AD
102
{ACAD_REACTORS
330
7AC
102
}
330
7AC
100
AcDbXrecord
280
     1
102
RTVSPropertyOp0
 70
     1
102
RTVSPropertyOp1
 70
     1
102
RTVSPropertyOp2
 70
     1
102
RTVSPropertyOp3
 70
     1
102
RTVSPropertyOp4
 70
     1
102
RTVSPropertyOp5
 70
     1
102
RTVSPropertyOp6
 70
     1
102
RTVSPropertyOp7
 70
     1
102
RTVSPropertyOp8
 70
     1
102
RTVSPropertyOp9
 70
     1
102
RTVSPropertyOp10
 70
     1
102
RTVSPropertyOp11
 70
     1
102
RTVSPropertyOp12
 70
     1
102
RTVSPropertyOp13
 70
     1
102
RTVSPropertyOp14
 70
     1
102
RTVSPropertyOp15
 70
     1
102
RTVSPropertyOp16
 70
     1
102
RTVSPropertyOp17
 70
     1
102
RTVSPropertyOp18
 70
     1
102
RTVSPropertyOp19
 70
     1
102
RTVSPropertyOp20
 70
     1
102
RTVSPropertyOp21
 70
     1
102
RTVSPropertyOp22
 70
     1
102
RTVSPropertyOp23
 70
     1
102
RTVSPropertyOp24
 70
     1
102
RTVSPropertyOp25
 70
     1
102
RTVSPropertyOp26
 70
     1
102
RTVSPropertyOp27
 70
     1
102
RTVSPropertyOp28
 70
     1
102
RTVSPropertyOp29
 70
     1
102
RTVSPropertyOp30
 70
     1
102
RTVSPropertyOp31
 70
     1
102
RTVSPropertyOp32
 70
     1
  0
ENDSEC
  0
EOF
